Криминальное чтиво / Pulp Fiction (Квентин Тарантино) [1994 г, Триллер, комедия, криминал, BDRip-AVC] Dub + 4хMVO + 4хAVO + Original + Sub

Ответить на тему
Статистика раздачи [Обновить пиров]
Буду качать: [ 1 ]
Скачал: [ 1 ]
 
   
 
 
Автор
Сообщение

mihis ®

Стаж: 2 года 1 месяц

Сообщений: 221

Создавать темы 10-Ноя-2014 23:55

[Цитировать] 

Криминальное чтиво / Pulp Fiction
«Just because you are a character doesn't mean you have character.»

Год выпуска: 1994
Страна: США / A Band Apart, Jersey Films, Miramax Films
Жанр: Триллер, комедия, криминал
Продолжительность: 02:34:56
Перевод: Профессиональный (дублированный) + Профессиональный (многоголосый, закадровый) West Video R5, HTB, Премьер Видео, ОРТ + Авторский (одноголосый закадровый) А.Гаврилов, Юрий Живов, Горчаков, Дмитрий Пучков - Гоблин + Оригинал
Субтитры: Русские
Режиссер: Квентин Тарантино
В ролях: Джон Траволта, Сэмюэл Л. Джексон, Ума Турман, Брюс Уиллис, Харви Кейтель, Тим Рот, Мария Де Медейрос, Дуэйн Уайтейкер, Розанна Аркетт, Лоуренс Бендер, Стив Бушеми, Бронах Галлахер, Квентин Тарантино, Сьюзан Гриффитс, Анджела Джоунс, Пол Калдерон, Эрик Кларк, Фил ЛаМарр, Брэд Паркер, Джозеф Пилато, Аманда Пламмер, Винг Рэймс, Берр Стирс, Кристофер Уокен, Фрэнк Уэйли, Стефен Хибберт.....
Описание: Двое бандитов Винсент Вега и Джулс Винфилд проводят время в философских беседах в перерыве между разборками и «решением проблем» с должниками своего криминального босса Марселласа Уоллеса. Параллельно разворачивается три истории.
В первой из них Винсент присматривает за женой Марселласа Мией и спасает ее от передозировки наркотиков. Во второй рассказывается о Бутче Кулидже, боксере, нанятом Уоллесом, чтобы сдать бой, но обманувшим его. Третья история объединяет первые две — в кафе парочка молодых неудачливых грабителей — Пампкин и Хани Бани делают попытку ограбления, но Джулс останавливает их.

Качество: BDRip-AVC
Формат: MKV
Видео кодек: H.264
Аудио кодек: AC3
Видео: AVC, 1024x436 (2.35:1), 23.976 fps, 2 618 Kbps (0.229 bit/pixel)
Аудио #1: AC3, 48.0 KHz, 6 ch, 384 Kbps, CBR Dub
Аудио #2: AC3, 48.0 KHz, 6 ch, 448 Kbps, CBR MVO West Video R5
Аудио #3: AC3, 48.0 KHz, 6 ch, 448 Kbps, CBR MVO HTB
Аудио #4: AC3, 48.0 KHz, 6 ch, 384 Kbps, CBR MVO Премьер Видео
Аудио #5: AC3, 48.0 KHz, 2 ch, 192 Kbps, CBR MVO ОРТ
Аудио #6: AC3, 48.0 KHz, 6 ch, 448 Kbps, CBR AVO А.Гаврилов
Аудио #7: AC3, 48.0 KHz, 6 ch, 384 Kbps, CBR AVO Ю.Живов
Аудио #8: AC3, 48.0 KHz, 2 ch, 192 Kbps, CBR AVO Горчаков
Аудио #9: AC3, 48.0 KHz, 6 ch, 448 Kbps, CBR AVO Дмитрий Пучков - Гоблин
Аудио #10: AC3, 48.0 KHz, 6 ch, 448 Kbps, CBR Eng

Награды

2 премии Национального совета обозревателей — за фильм (поровну с «Форрестом Гампом» / Forrest Gump) и за режиссуру, 4 приза «Независимый дух» — за фильм, режиссуру, сценарий (Квентин Тарантино, Роджер Эйвари) и главную мужскую роль (Сэмьюэл Л. Джексон), 2 приза «Давид» Донателло» в Италии — лучшему иностранному режиссёру (Квентин Тарантино) и актёру (Джон Травольта), «Голубая лента» и премия «Кинема дзюнпо» в Японии за лучшую иностранную ленту, 3 приза на МКФ в Стокгольме — за фильм, сценарий (Квентин Тарантино) и мужскую роль (Джон Траволта).
Оскар, 1995 год
Победитель (1):
Лучший сценарий
Номинации (6):
Лучший фильм
Лучшая мужская роль (Джон Траволта)
Лучшая мужская роль второго плана (Сэмюэл Л. Джексон)
Лучшая женская роль второго плана (Ума Турман)
Лучший режиссер (Квентин Тарантино)
Лучший монтаж
Золотой глобус, 1995 год
Победитель (1):
Лучший сценарий
Номинации (5):
Лучший фильм (драма)
Лучшая мужская роль (драма) (Джон Траволта)
Лучшая мужская роль второго плана (Сэмюэл Л. Джексон)
Лучшая женская роль второго плана (Ума Турман)
Лучший режиссер (Квентин Тарантино)
Премия канала «MTV», 1995 год
Победитель (2):
Лучший танец (Ума Турман, Джон Траволта)
Лучший фильм
Номинации (4):
Лучшая песня — «Girl, You'll Be a Woman Soon»
Лучший экранный дуэт (Сэмюэл Л. Джексон, Джон Траволта)
Лучшая женская роль (Ума Турман)
Лучшая мужская роль (Джон Траволта)
Британская академия, 1995 год
Победитель (2):
Лучшая мужская роль второго плана (Сэмюэл Л. Джексон)
Лучший оригинальный сценарий
Номинации (7):
Лучший фильм
Лучшая мужская роль (Джон Траволта)
Лучшая женская роль (Ума Турман)
Лучшая работа оператора
Лучший звук
Лучший монтаж
Премия имени Дэвида Лина за достижения в режиссуре (Квентин Тарантино)
Сезар, 1995 год
Номинации (1):
Лучший фильм на иностранном языке
Сатурн, 1995 год
Победитель (1):
Лучший приключенческий фильм, боевик или триллер
Каннский кинофестиваль, 1994 год
Победитель (1):
Золотая пальмовая ветвь

MediaInfo

Общее
Уникальный идентификатор : 209640554832000638526916419665330543271 (0x9DB74D5DB162DFBBBFDA5707CB6D9AA7)
Полное имя : E:2Kriminalnoe.chtivo.1994.x264.BDRip.(AVC).ExKinoRay.mkv
Формат : Matroska
Размер файла : 6,88 Гбайт
Продолжительность : 2 ч. 34 м.
Общий поток : 6357 Кбит/сек
Название фильма : Kriminalnoe.chtivo.1994.x264.BDRip.(AVC).ExKinoRay
Дата кодирования : UTC 2014-01-10 20:33:04
Программа кодирования : mkvmerge v4.0.0 ('The Stars were mine') сборка от Jun 6 2010 16:18:42
Библиотека кодирования : libebml v1.0.0 + libmatroska v1.0.0
Видео
Идентификатор : 1
Формат : AVC
Формат/Информация : Advanced Video Codec
Профиль формата : [email protected]
Параметр CABAC формата : Да
Параметр ReFrames формата : 9 кадров
Идентификатор кодека : V_MPEG4/ISO/AVC
Продолжительность : 2 ч. 34 м.
Битрейт : 2454 Кбит/сек
Номинальный битрейт : 2618 Кбит/сек
Ширина : 1024 пикс.
Высота : 436 пикс.
Соотношение сторон : 2,35:1
Частота кадров : 23,976 кадр/сек
Цветовое пространство : YUV
Подвыборка цветности : 4:2:0
Битовая глубина : 8 бит
Тип развёртки : Прогрессивная
Бит/(Пиксели*Кадры) : 0.229
Размер потока : 2,66 Гбайт (39%)
Заголовок : Rip by Enigma-Vladislav71
Библиотека кодирования : x264 core 129 r2245 bc13772
Настройки программы : cabac=1 / ref=9 / deblock=1:-3:-3 / analyse=0x3:0x133 / me=umh / subme=11 / psy=1 / psy_rd=1.00:0.00 / mixed_ref=1 / me_range=48 / chroma_me=1 / trellis=2 / 8x8dct=1 / cqm=0 / deadzone=21,11 / fast_pskip=0 / chroma_qp_offset=-2 / threads=3 / lookahead_threads=1 / sliced_threads=0 / nr=0 / decimate=0 / interlaced=0 / bluray_compat=0 / constrained_intra=0 / bframes=9 / b_pyramid=2 / b_adapt=2 / b_bias=0 / direct=3 / weightb=1 / open_gop=0 / weightp=2 / keyint=240 / keyint_min=23 / scenecut=40 / intra_refresh=0 / rc=2pass / mbtree=0 / bitrate=2618 / ratetol=1.0 / qcomp=0.60 / qpmin=10 / qpmax=51 / qpstep=4 / cplxblur=20.0 / qblur=0.5 / ip_ratio=1.40 / pb_ratio=1.30 / aq=2:1.00
Язык : English
Аудио #1
Идентификатор : 2
Формат : AC-3
Формат/Информация : Audio Coding 3
Расширение режима : CM (complete main)
Идентификатор кодека : A_AC3
Продолжительность : 2 ч. 34 м.
Вид битрейта : Постоянный
Битрейт : 384 Кбит/сек
Каналы : 6 каналов
Расположение каналов : Front: L C R, Side: L R, LFE
Частота : 48,0 КГц
Битовая глубина : 16 бит
Метод сжатия : С потерями
Размер потока : 426 Мбайт (6%)
Заголовок : Дублированный
Язык : Russian
Аудио #2
Идентификатор : 3
Формат : AC-3
Формат/Информация : Audio Coding 3
Расширение режима : CM (complete main)
Идентификатор кодека : A_AC3
Продолжительность : 2 ч. 34 м.
Вид битрейта : Постоянный
Битрейт : 448 Кбит/сек
Каналы : 6 каналов
Расположение каналов : Front: L C R, Side: L R, LFE
Частота : 48,0 КГц
Битовая глубина : 16 бит
Метод сжатия : С потерями
Размер потока : 497 Мбайт (7%)
Заголовок : Профессиональный многоголосый (West Video, R5)
Язык : Russian
Аудио #3
Идентификатор : 4
Формат : AC-3
Формат/Информация : Audio Coding 3
Расширение режима : CM (complete main)
Идентификатор кодека : A_AC3
Продолжительность : 2 ч. 34 м.
Вид битрейта : Постоянный
Битрейт : 448 Кбит/сек
Каналы : 6 каналов
Расположение каналов : Front: L C R, Side: L R, LFE
Частота : 48,0 КГц
Битовая глубина : 16 бит
Метод сжатия : С потерями
Размер потока : 497 Мбайт (7%)
Заголовок : Профессиональный многоголосый (HTB)
Язык : Russian
Аудио #4
Идентификатор : 5
Формат : AC-3
Формат/Информация : Audio Coding 3
Расширение режима : CM (complete main)
Идентификатор кодека : A_AC3
Продолжительность : 2 ч. 34 м.
Вид битрейта : Постоянный
Битрейт : 384 Кбит/сек
Каналы : 6 каналов
Расположение каналов : Front: L C R, Side: L R, LFE
Частота : 48,0 КГц
Битовая глубина : 16 бит
Метод сжатия : С потерями
Размер потока : 426 Мбайт (6%)
Заголовок : Профессиональный многоголосый (Премьер Видео)
Язык : Russian
Аудио #5
Идентификатор : 6
Формат : AC-3
Формат/Информация : Audio Coding 3
Расширение режима : CM (complete main)
Идентификатор кодека : A_AC3
Продолжительность : 2 ч. 34 м.
Вид битрейта : Постоянный
Битрейт : 192 Кбит/сек
Каналы : 2 канала
Расположение каналов : Front: L R
Частота : 48,0 КГц
Битовая глубина : 16 бит
Метод сжатия : С потерями
Размер потока : 213 Мбайт (3%)
Заголовок : Профессиональный многоголосый (ОРТ)
Язык : Russian
Аудио #6
Идентификатор : 7
Формат : AC-3
Формат/Информация : Audio Coding 3
Расширение режима : CM (complete main)
Идентификатор кодека : A_AC3
Продолжительность : 2 ч. 34 м.
Вид битрейта : Постоянный
Битрейт : 448 Кбит/сек
Каналы : 6 каналов
Расположение каналов : Front: L C R, Side: L R, LFE
Частота : 48,0 КГц
Битовая глубина : 16 бит
Метод сжатия : С потерями
Размер потока : 497 Мбайт (7%)
Заголовок : Авторский одноголосый (А.Гаврилов)
Язык : Russian
Аудио #7
Идентификатор : 8
Формат : AC-3
Формат/Информация : Audio Coding 3
Расширение режима : CM (complete main)
Идентификатор кодека : A_AC3
Продолжительность : 2 ч. 34 м.
Вид битрейта : Постоянный
Битрейт : 384 Кбит/сек
Каналы : 6 каналов
Расположение каналов : Front: L C R, Side: L R, LFE
Частота : 48,0 КГц
Битовая глубина : 16 бит
Метод сжатия : С потерями
Размер потока : 426 Мбайт (6%)
Заголовок : Авторский одноголосый (Ю.Живов)
Язык : Russian
Аудио #8
Идентификатор : 9
Формат : AC-3
Формат/Информация : Audio Coding 3
Расширение режима : CM (complete main)
Идентификатор кодека : A_AC3
Продолжительность : 2 ч. 34 м.
Вид битрейта : Постоянный
Битрейт : 192 Кбит/сек
Каналы : 2 канала
Расположение каналов : Front: L R
Частота : 48,0 КГц
Битовая глубина : 16 бит
Метод сжатия : С потерями
Размер потока : 213 Мбайт (3%)
Заголовок : Авторский одноголосый (Горчаков)
Язык : Russian
Аудио #9
Идентификатор : 10
Формат : AC-3
Формат/Информация : Audio Coding 3
Расширение режима : CM (complete main)
Идентификатор кодека : A_AC3
Продолжительность : 2 ч. 34 м.
Вид битрейта : Постоянный
Битрейт : 448 Кбит/сек
Каналы : 6 каналов
Расположение каналов : Front: L C R, Side: L R, LFE
Частота : 48,0 КГц
Битовая глубина : 16 бит
Метод сжатия : С потерями
Размер потока : 497 Мбайт (7%)
Заголовок : Авторский одноголосый (Дмитрий Пучков - Гоблин)
Язык : Russian
Аудио #10
Идентификатор : 11
Формат : AC-3
Формат/Информация : Audio Coding 3
Расширение режима : CM (complete main)
Идентификатор кодека : A_AC3
Продолжительность : 2 ч. 34 м.
Вид битрейта : Постоянный
Битрейт : 448 Кбит/сек
Каналы : 6 каналов
Расположение каналов : Front: L C R, Side: L R, LFE
Частота : 48,0 КГц
Битовая глубина : 16 бит
Метод сжатия : С потерями
Размер потока : 497 Мбайт (7%)
Заголовок : английский
Язык : English
Текст
Идентификатор : 12
Формат : UTF-8
Идентификатор кодека : S_TEXT/UTF8
Идентификатор кодека/Информация : UTF-8 Plain Text
Язык : Russian
[Профиль]  [ЛС] 
Похожие темы
Форум Тема Автор Размер
Зарубежные сериалы 12 знаков / Zodiak - Der Horoskop-Morder [Серии:1-2 из 2] (Андреас Прохазка ) (2007, триллер, криминал, DVDRip) anatolyi100 4,11 GB
Зарубежные сериалы 19-2 / 19-2 [1 сезон. Серии: 1-10 из 10] (Луи Шокетт, Эрик Кануэль, Дэниэл Гру) (2014, драма, криминал, HDTVRip) anatolyi100 5,05 GB
3D/Stereo фильмы Need for Speed: Жажда скорости в 3Д / Need for Speed 3D (Скотт Во / Scott Waugh) [2014, боевик, триллер, драма, криминал, Blu-ray disc 1080p] BD3D EUR bot 45,7 GB
Отечественные сериалы Агентство скрытых камер / Сезон: 1 / Серии: 1-10 из 10 (Слава Падалка, Андрей Канивченко) [2016, Детектив, криминал, HDTVRip] Олег_SevStar 3,91 GB
Наше кино Антиснайпер. Выстрел из прошлого (Сергей Соколюк) [2010 г., драма, криминал, SATRip] Фунтик 1,33 GB
Наше кино Афера (Евгений Лаврентьев) [2001 г., криминал, DVDRip] anatolyi100 744 MB
Зарубежное кино Афера / Confidence (Джеймс Фоули) (2003, триллер, криминал, комедия, WEB-DLRip-AVC) anatolyi100 2,04 GB
Зарубежные сериалы Банши / Banshee (3 сезон: 1-10 серии из 10) (Мигель Сапочник, Грег Яйтанс) [2015 г., Драма, криминал, детектив, HDTVRip] MVO mihis 6,03 GB
Показать сообщения:    
Ответить на тему

Текущее время: 03-Дек 07:36

Часовой пояс: UTC + 3



Вы не можете начинать темы
Вы не можете отвечать на сообщения
Вы не можете редактировать свои сообщения
Вы не можете удалять свои сообщения
Вы не можете голосовать в опросах
Вы не можете прикреплять файлы к сообщениям
Вы не можете скачивать файлы