Марьина роща-2 / Сезон: 2 / Серии: 18 из 18 (Евгений Серов) [2014, криминальный детектив, HDTVRip]

Ответить на тему
Статистика раздачи [Обновить пиров]
Качаю: [ 1 ]
Скачал: [ 2 ]
 
   
 
 
Автор
Сообщение

dimdim ®

Стаж: 6 лет 8 месяцев

Сообщений: 113

Создавать темы 23-Ноя-2014 21:36

[Цитировать] 

Марьина роща-2
Год выпуска: 2014
Производство: Россия
Жанр: криминальный детектив
Продолжительность: 18 x ~ 00:50:00
Субтитры: отсутствуют
Режиссёр: Евгений Серов
В ролях: Александр Домогаров, Евгения Крюкова, Виктор Тереля, Сергей Комаров (II), Александр Сергеев (IV), Игорь Поселенов, Александр Печенин, Александр Новик, Юлия Рутберг, Дмитрий Горевой, Надежда Иванова, Кирилл Каганович, Татьяна Ткач, Владимир Долинский, Юрий Шлыков, Алексей Михайлов (II), Борис Романов, Яна Львова, Вера Фалютинская, Ирина Гришина, Екатерина Виноградова (III), Дмитрий Янышевский, Николай Бутенин, Александра Булычёва, Анна Снегина, Анастасия Немец, Олег Чевелёв, Юрий Маслак, Елена Антипова, Вячеслав Беляев, Юрий Тузов, Венчислав Хотяновский, Ксения Баринова, Эмилия Савельева, Елена Гольянова
Описание: Арест Трошина круто меняет не только его судьбу, но и жизни всех главных героев истории. А за свое освобождение Трошин расплачивается самым дорогим – любовью. Их с Ниной отношения подвергаются серьезнейшим испытаниям, главное из которых – Николай, муж Нины, который, оказывается, жив. Но, несмотря на личные проблемы, Трошин вновь на посту. Он, по-прежнему, участковый в Марьиной Роще, обстановка в которой постепенно накаляется.Эйфория мая 45-го проходит, начинаются суровые будни – усиление борьбы с преступностью, ужесточение наказаний. Но уголовный мир не намерен сдаваться. Преступная элита, где Николай играет не последнюю роль, в свою очередь ведет наступление на закон и порядок. В нечестной игре все средства хороши – от устранения сотрудников милиции, до подкупа и шантажа.Принципиальный Трошин для воров в законе становится большой проблемой…
Качество: HDTVRip
Формат: AVI
Видео кодек: XviD
Аудио кодек: AC3
Видео: 720x400 (1.80:1), 25 fps, XviD MPEG-4 ~1575 kbps avg, 0.22 bit/pixel
Аудио: 48 kHz, AC3 Dolby Digital, 2/0 (L,R) ch, ~192 kbps

MI

Общее
Complete name : Y:\раздачи\Maryina.Rosha-2.2014.HDTVRip.RG.Russkie.serialy.&.Files-x\Maryina.Rosha-2.01.2014.HDTVRip.RG.Russkie.serialy.&.Files-x.avi
Format : AVI
Format/Info : Audio Video Interleave
File size : 550 MiB
Duration : 43mn 15s
Overall bit rate : 1 777 Kbps
Video
ID : 0
Format : MPEG-4 Visual
Codec ID : XVID
Codec ID/Hint : XviD
Duration : 43mn 15s
Bit rate : 1 575 Kbps
Width : 720 pixels
Height : 400 pixels
Display aspect ratio : 16:9
Frame rate : 25.000 fps
Color space : YUV
Chroma subsampling : 4:2:0
Bit depth : 8 bits
Scan type : Progressive
Compression mode : Lossy
Bits/(Pixel*Frame) : 0.219
Stream size : 487 MiB (89%)
Writing library : XviD 73
Audio
ID : 1
Format : AC-3
Format/Info : Audio Coding 3
Mode extension : CM (complete main)
Format settings, Endianness : Big
Codec ID : 2000
Duration : 43mn 15s
Bit rate mode : Constant
Bit rate : 192 Kbps
Channel(s) : 2 channels
Channel positions : Front: L R
Sampling rate : 48.0 KHz
Bit depth : 16 bits
Compression mode : Lossy
Stream size : 59.4 MiB (11%)

Скриншоты






Последний раз редактировалось: dimdim (2014-11-24 17:40), всего редактировалось 1 раз
[Профиль]  [ЛС] 

Фунтик

Стаж: 8 лет 7 месяцев

Сообщений: 316

Откуда: из прошлого века

Создавать темы 24-Ноя-2014 11:27 (спустя 13 часов)

[Цитировать] 

файлов 18
[Профиль]  [ЛС] 

dimdim ®

Стаж: 6 лет 8 месяцев

Сообщений: 113

Создавать темы 24-Ноя-2014 17:42 (спустя 6 часов)

[Цитировать] 

718814файлов 18
Ок. Поправил.
[Профиль]  [ЛС] 

SIMANTEK

Стаж: 8 лет 7 месяцев

Сообщений: 15

Создавать темы 26-Ноя-2014 20:40 (спустя 2 дня 2 часа)

[Цитировать] 

Файлов 18, а серий 17!? Что это значит?
[Профиль]  [ЛС] 
Похожие темы
Форум Тема Автор Размер
Отечественные сериалы Марьина роща /Серии: 1-16 из 16 (Александр Хван) [2012 г., Детектив, SATRip] Фунтик 8,59 GB
Показать сообщения:    
Ответить на тему

Текущее время: 10-Дек 17:35

Часовой пояс: UTC + 3



Вы не можете начинать темы
Вы не можете отвечать на сообщения
Вы не можете редактировать свои сообщения
Вы не можете удалять свои сообщения
Вы не можете голосовать в опросах
Вы не можете прикреплять файлы к сообщениям
Вы не можете скачивать файлы