Господа-товарищи (1-8 серии из 8) (Василий Сериков, Всеволод Аравин, Алексей Рудаков) [2014 г., Историческая драма, криминал, детектив, SATRip]

Ответить на тему
Статистика раздачи [Обновить пиров]
Скачал: [ 3 ]
 
   
 
 
Автор
Сообщение

mihis ®

Стаж: 2 года 1 месяц

Сообщений: 221

Создавать темы 02-Дек-2014 01:40

[Цитировать] 

Господа-товарищи8 серий Год выпуска: 2014
Страна: Россия, кинокомпания "Феникс-фильм"
Жанр: Историческая драма, криминал, детектив
Продолжительность: 8 x ~00:50:00
Перевод: Не требуется
Cубтитры: нет
Режиссер: Василий Сериков, Всеволод Аравин, Алексей Рудаков
В ролях: Александр Домогаров, Вячеслав Крикунов, Елизавета Нилова, Виктор Низовой, Сергей Сосновский, Фёдор Лавров, Маргарита Шилова, Сергей Комаров (II), Виктор Конухин, Никита Прозоровский-Семёнов, Ксения Кузнецова, Владимир Большов, Андрей Свиридов, Владимир Горюшин, Борис Эстрин, Юлия Галкина, Михаил Слесарев, Георгий Тополага, Михаил Дорожкин, Евгений Кулаков, Александр Багрянцев, Роман Артемьев, Людмила Свитова, Сергей Багаев, Андрей Иванов (VI), Давид Бродский, Юлия Пивень, Дмитрий Сапронов, Ольга Остроумова-Гутшмидт, Инна Хотеенкова
Описание: Москва, 1919 год... Вслед за послереволюционной амнистией, междувластием и нищетой последовал и разгул криминала. Для борьбы с бандитизмом принимается решение усилить кадровый состав Уголовного розыска за счет не только большевиков, но и профессионалов царского сыска. Так в Уголовном розыске оказываются бывший следователь сыскной полиции Николай Вараксин и моряк-балтиец Петр Соколов. Неудивительно, что между напарниками сразу возникает открытая вражда. Но "классовым врагам" приходится работать сообща — ведь всесильную московскую преступность в одиночку победить нельзя…
Качество: SATRip
Формат: AVI
Видео кодек: XviD
Аудио кодек: MP3
Видео: 704x368, 25 fps, XviD, ~1400 kbps, 0.229 bit/pixel
Аудио: 48 kHz, MPEG Layer 3, 2 ch, ~192.00 kbps avg

Внимание! Раздача ведётся путём добавления новых серий!

Внимание! Раздача ведётся путём добавления новых серий; при каждом добавлении создётся новый торрент. Чтобы начать докачку новой серии, пользователям необходимо сделать следующее:
(1) остановить скачивание,
(2) удалить старый торрент у себя из клиента (старые серии удалять не надо),
(3) скачать новый торрент и запустить его у себя в клиенте вместо старого, при этом указать клиенту путь в старую папку куда и должно происходить скачивание новых серий.
Ваш клиент при этом должен произвести хеширование (проверку) старой папки (если не производит сам - помогите ему сделать это), и будет докачивать только те серии которых у вас ещё нет. Старые серии при этом не удаляются, а продолжают раздаваться!
Eсли вы уже удалили старые серии, то предотвратить повторную закачку старых серий можно, отжав галочку в соответсвующих местах при запуске нового торрента.

MediaInfo

Общее
Полное имя : U:\Сериалы (2014)_2\Господа-товарищи (2014)\Господа-товарищи.(01.seriya).2014.XviD.SATRip.by.simka.avi
Формат : AVI
Формат/Информация : Audio Video Interleave
Размер файла : 568 Мбайт
Продолжительность : 49 м.
Общий поток : 1601 Кбит/сек
Программа кодирования : VirtualDubModRus 1.5.10.2 (build 2542/release)
Библиотека кодирования : VirtualDubMod build 2542/release
Видео
Идентификатор : 0
Формат : MPEG-4 Visual
Профиль формата : Advanced [email protected]
Параметр BVOP формата : 1
Параметр QPel формата : Нет
Параметр GMC формата : Без точки перехода
Параметр матрицы формата : Default (MPEG)
Идентификатор кодека : XVID
Идентификатор кодека/Подсказка : XviD
Продолжительность : 49 м.
Битрейт : 1400 Кбит/сек
Ширина : 704 пикселя
Высота : 368 пикселей
Соотношение сторон : 1,913
Частота кадров : 25,000 кадров/сек
Цветовое пространство : YUV
Субдискретизация насыщенности : 4:2:0
Битовая глубина : 8 бит
Тип развёртки : Прогрессивная
Метод сжатия : С потерями
Бит/(Пиксели*Кадры) : 0.216
Размер потока : 496 Мбайт (87%)
Библиотека кодирования : XviD 1.2.1 (UTC 2008-12-04)
Аудио
Идентификатор : 1
Формат : MPEG Audio
Версия формата : Version 1
Профиль формата : Layer 3
Режим : Joint stereo
Идентификатор кодека : 55
Идентификатор кодека/Подсказка : MP3
Продолжительность : 49 м.
Вид битрейта : Постоянный
Битрейт : 192 Кбит/сек
Каналы : 2 канала
Частота : 48,0 КГц
Метод сжатия : С потерями
Размер потока : 68,1 Мбайт (12%)
Выравнивание : Соединение по промежуткам
Продолжительность промежутка : 40 мс. (1,00 видеокадр)
Время предзагрузки промежутка : 504 мс.
Библиотека кодирования : LAME3.99r
Настройки программы : -m j -V 4 -q 2 -lowpass 18.6 -b 192


Последний раз редактировалось: mihis (2014-12-05 00:14), всего редактировалось 2 раз(а)
[Профиль]  [ЛС] 

mihis ®

Стаж: 2 года 1 месяц

Сообщений: 221

Создавать темы 03-Дек-2014 00:28 (спустя 22 часа)

[Цитировать] 

добавлены 3-4 серии
[Профиль]  [ЛС] 

mihis ®

Стаж: 2 года 1 месяц

Сообщений: 221

Создавать темы 04-Дек-2014 00:15 (спустя 23 часа)

[Цитировать] 

добавлены 5-6 серии
[Профиль]  [ЛС] 

mihis ®

Стаж: 2 года 1 месяц

Сообщений: 221

Создавать темы 05-Дек-2014 00:15 (спустя 23 часа)

[Цитировать] 

добавлены 7-8 серии Финал
[Профиль]  [ЛС] 
Похожие темы
Форум Тема Автор Размер
HD Господа-товарищи / Сезон: 1 / Серии: 1-16 из 16 (Василий Сериков, Всеволод Аравин, Алексей Рудаков) [2014-2015, Детектив, криминал, прюключения, WEB-DL (720p)] Олег_SevStar 18,83 GB
Аудиокниги Пратчетт Терри -"Дамы и господа" Oldket 685 MB
Показать сообщения:    
Ответить на тему

Текущее время: 05-Дек 07:28

Часовой пояс: UTC + 3



Вы не можете начинать темы
Вы не можете отвечать на сообщения
Вы не можете редактировать свои сообщения
Вы не можете удалять свои сообщения
Вы не можете голосовать в опросах
Вы не можете прикреплять файлы к сообщениям
Вы не можете скачивать файлы