Лермонтов (Максим Беспалый) [2014, драма, биография, документальный, HDTVRip]

Ответить на тему
Статистика раздачи [Обновить пиров]
Скачал: [ 5 ]
 
   
 
 
Автор
Сообщение

Олег_SevStar ®

Стаж: 7 лет 8 месяцев

Сообщений: 2424

Откуда: из Союза...

Создавать темы 07-Янв-2015 11:57

[Цитировать] 

Лермонтов
Страна: Россия
Студия: Star Media
Жанр: драма, биография, документальный
Год выпуска: 2014
Продолжительность: 01:29:50
Режиссёр: Максим Беспалый
В ролях: Владимир Аблогин, Анна Леванова, Илья Ловкий, Семён Сердин, Василий Цыганцов, Александр Лимин, Павел Рассомахин, Сесиль Свердлова, Людмила Гамуряк, Данила Колбасеев
Описание: 200 лет назад родился русский поэт Михаил Лермонтов. Юноша с огромными глазами: его портрет известен каждому со времён школы. Лермонтов писал стихи, воевал, влюблялся и был убит на дуэли. Короткая жизнь в 27 лет. Но что мы знаем о настоящем Лермонтове? Биографический документально-игровой фильм подробно рассказывает о жизни незаурядного человека и великого поэта.

Качество видео: HDTVRip
Формат видео: AVI
Видео: XviD, 704x400 (16:9), 2133 Кбит/с, 25 кадр/с
Аудио: Русский, Dolby AC3, 48000 Гц, 192 Кбит/с, 2 канала (Стерео)

MediaInfo

General
Complete name : Lermontov.2014.HDTVRip.avi
Format : AVI
Format/Info : Audio Video Interleave
File size : 1.46 GiB
Duration : 1h 29mn
Overall bit rate : 2 333 Kbps
Writing application : VirtualDubMod 1.5.10.3 (build 2550/release)
Writing library : VirtualDubMod build 2550/release
Copyright : rip by ivandubskoj
Video
ID : 0
Format : MPEG-4 Visual
Format profile : Advanced [email protected]
Format settings, BVOP : 1
Format settings, QPel : No
Format settings, GMC : No warppoints
Format settings, Matrix : Default (MPEG)
Codec ID : XVID
Codec ID/Hint : XviD
Duration : 1h 29mn
Bit rate : 2 133 Kbps
Width : 704 pixels
Height : 400 pixels
Display aspect ratio : 16:9
Frame rate : 25.000 fps
Color space : YUV
Chroma subsampling : 4:2:0
Bit depth : 8 bits
Scan type : Progressive
Compression mode : Lossy
Bits/(Pixel*Frame) : 0.303
Stream size : 1.34 GiB (91%)
Writing library : XviD 73
Audio
ID : 1
Format : AC-3
Format/Info : Audio Coding 3
Mode extension : CM (complete main)
Codec ID : 2000
Duration : 1h 29mn
Bit rate mode : Constant
Bit rate : 192 Kbps
Channel(s) : 2 channels
Channel positions : Front: L R
Sampling rate : 48.0 KHz
Bit depth : 16 bits
Compression mode : Lossy
Stream size : 123 MiB (8%)
Alignment : Split accross interleaves
Interleave, duration : 64 ms (1.60 video frames)
Interleave, preload duration : 500 ms
[Профиль]  [ЛС] 

Олег_SevStar ®

Стаж: 7 лет 8 месяцев

Сообщений: 2424

Откуда: из Союза...

Создавать темы 03-Ноя-2015 15:22 (спустя 9 месяцев 27 дней)

[Цитировать] 

Теперь раздача мультитрекерная!
[Профиль]  [ЛС] 
Показать сообщения:    
Ответить на тему

Текущее время: 04-Дек 13:07

Часовой пояс: UTC + 3



Вы не можете начинать темы
Вы не можете отвечать на сообщения
Вы не можете редактировать свои сообщения
Вы не можете удалять свои сообщения
Вы не можете голосовать в опросах
Вы не можете прикреплять файлы к сообщениям
Вы не можете скачивать файлы