Военный ныряльщик / Men of Honor (Джордж Тиллман мл.) (2000, драма, биография, BDRip)

Ответить на тему
Статистика раздачи [Обновить пиров]
Нет
 
   
 
 
Автор
Сообщение

anatolyi100 ®

Стаж: 6 лет 2 месяца

Сообщений: 826

Откуда: г.герой Севастополь

Создавать темы 07-Фев-2015 18:34

[Цитировать] 

Военный ныряльщик / Men of Honor
Год выпуска: 2000
Страна: США
Жанр: Драма, биография
Продолжительность: 02:08:47
Перевод: Дубляж
Режиссер: Джордж Тиллман мл.
В ролях: Роберт Де Ниро, Кьюба Гудинг мл., Шарлиз Терон, Онжаню Эллис, Хэл Холбрук, Майкл Рапапорт, Пауэрс Бут, Дэвид Кейт, Холт МакКэллэни, Дэвид Конрад, Джошуа Леонард, Карл Ламбли, Лонетт МакКи, Глинн Турман, Джошуа Фейнман, Крис Уоррен мл., Лестер Б. Хэнсон, Джек Фрэзиер
Описание: Фильм основан на реальных событиях из жизни легендарного водолаза Карла Брашира. Его наставник и старший офицер Билл Сандэй убежден, что неграм нечего делать во флоте, и самыми жестокими и бесчеловечными способами издевается и «обламывает» амбициозного новичка.
Однако ему это не удается, и более того, вскоре он начинает испытывать симпатию к этому чрезвычайно упертому парню, который скорее погибнет, чем покажет слабость. Вместе они пытаются сопротивляться бюрократам из командования ВМФ, которых не устраивает цвет кожи героя.
Карл всегда вызывается добровольцем на выполнение самых опасных секретных спецопераций, связанных с повышенным риском для жизни. Однако судьба приготовила ему куда более страшное испытание, преодолеть которое способен только настоящий герой.

Качество: BDRip
Формат: AVI
Видео кодек: XviD
Аудио кодек: АС-3
Видео: 720x304 (2.37:1), 1223 Кб/с
Аудио: АС-3, 6 ch, 384 Кб/с
Релиз:

Скриншоты




[Профиль]  [ЛС] 

AC_Exotic

Стаж: 8 лет 7 месяцев

Сообщений: 11

Откуда: Севастополь

Создавать темы 21-Фев-2015 09:47 (спустя 13 дней)

[Цитировать] 

Если интересно - есть более качественная версия этого фильма:
General
Unique ID : 232378264810189938062838464835447948005 (0xAED26D054F469699A106C2D37F0002E5)
Complete name : K:\video\Men_of_Honor[HDTV].mkv
Format : Matroska
Format version : Version 1
File size : 7.94 GiB
Duration : 2h 8mn
Overall bit rate : 8 821 Kbps
Encoded date : UTC 2007-08-24 11:06:30
Writing application : mkvmerge v2.1.0 ('Another Place To Fall') built on Aug 19 2007 13:40:07
Writing library : libebml v0.7.7 + libmatroska v0.8.1
Video
ID : 1
Format : AVC
Format/Info : Advanced Video Codec
Format profile : [email protected]
Format settings, CABAC : Yes
Format settings, ReFrames : 8 frames
Codec ID : V_MPEG4/ISO/AVC
Duration : 2h 8mn
Bit rate : 7 613 Kbps
Width : 1 920 pixels
Height : 816 pixels
Display aspect ratio : 2.35:1
Frame rate mode : Constant
Frame rate : 23.976 fps
Color space : YUV
Chroma subsampling : 4:2:0
Bit depth : 8 bits
Scan type : Progressive
Bits/(Pixel*Frame) : 0.203
Stream size : 6.70 GiB (84%)
Title : Men of Honor
Writing library : x264 core 56 svn-667C
Encoding settings : cabac=1 / ref=5 / deblock=1:-3:-3 / analyse=0x3:0x133 / me=umh / subme=7 / brdo=1 / mixed_ref=1 / me_range=16 / chroma_me=1 / trellis=1 / 8x8dct=1 / cqm=2 / deadzone=21,11 / chroma_qp_offset=0 / threads=3 / nr=0 / decimate=1 / mbaff=0 / bframes=3 / b_pyramid=1 / b_adapt=1 / b_bias=0 / direct=3 / wpredb=1 / bime=1 / keyint=250 / keyint_min=25 / scenecut=40(pre) / rc=2pass / bitrate=7613 / ratetol=1.0 / rceq='blurCplx^(1-qComp)' / qcomp=0.60 / qpmin=10 / qpmax=51 / qpstep=4 / cplxblur=20.0 / qblur=0.5 / ip_ratio=1.40 / pb_ratio=1.30 / aq=1:0.3:15.0
Language : English
Default : Yes
Forced : No
Audio #1
ID : 2
Format : AC-3
Format/Info : Audio Coding 3
Mode extension : CM (complete main)
Format settings, Endianness : Big
Codec ID : A_AC3
Duration : 2h 8mn
Bit rate mode : Constant
Bit rate : 448 Kbps
Channel(s) : 6 channels
Channel positions : Front: L C R, Side: L R, LFE
Sampling rate : 48.0 KHz
Bit depth : 16 bits
Compression mode : Lossy
Stream size : 413 MiB (5%)
Title : Dolby AC3 5.1
Language : Russian
Default : Yes
Forced : No
Audio #2
ID : 3
Format : DTS
Format/Info : Digital Theater Systems
Mode : 16
Format settings, Endianness : Big
Codec ID : A_DTS
Duration : 2h 8mn
Bit rate mode : Constant
Bit rate : 755 Kbps
Channel(s) : 6 channels
Channel positions : Front: L C R, Side: L R, LFE
Sampling rate : 48.0 KHz
Bit depth : 24 bits
Compression mode : Lossy
Stream size : 695 MiB (9%)
Title : DTS 5.1
Language : English
Default : No
Forced : No
Text
ID : 4
Format : UTF-8
Codec ID : S_TEXT/UTF8
Codec ID/Info : UTF-8 Plain Text
Language : English
Default : No
Forced : No
[Профиль]  [ЛС] 

SERVANTES

Стаж: 8 лет 6 месяцев

Сообщений: 7

Откуда: От верблюда

Создавать темы 04-Мар-2015 23:20 (спустя 11 дней)

[Цитировать] 

Фильм великолепный!
[Профиль]  [ЛС] 

серенький

Стаж: 7 лет 6 месяцев

Сообщений: 37

Создавать темы 06-Мар-2015 14:24 (спустя 1 день 15 часов)

[Цитировать] 

зачёт
[Профиль]  [ЛС] 

Giper4el

Стаж: 6 лет 5 месяцев

Сообщений: 20

Откуда: из душа

Создавать темы 23-Мар-2015 10:36 (спустя 16 дней)

[Цитировать] 

фильм на чистую 5
[Профиль]  [ЛС] 
Похожие темы
Форум Тема Автор Размер
Шансон, Авторская и Военная песня (военно-морской шансон) Автономка-1,2,3-Александр Викторов - 2000-2009, MP3, 320 kbps Boxer 272 MB
HD 300 спартанцев / 300 (Зак Снайдер) [2007 г., фэнтези, боевик, военный, история, BDRip] -=DoC(ToP)=-™ 7,76 GB
Зарубежное кино 300 спартанцев: Расцвет империи / 300 Rise of an Empire (Ноам Мурро) [2014, боевик, драма, военный, WEB-DLRip-AVC] [Dub] [Лицензия (iTunes)] Lost_Mind 1,45 GB
3D/Stereo фильмы 300 спартанцев: Расцвет империи в 3Д / 300 Rise of an Empire 3D (Ноам Мурро) [2014, Боевик, драма, военный, BDremux, 1080p] BD3D bot 26,78 GB
3D/Stereo фильмы 300 спартанцев: Расцвет империи в 3Д / 300: Rise of an Empire 3D (Ноам Мурро / Noam Murro) [2014, Фэнтези, Боевик, Драма, Военный, BDrip-AVC] Half OverUnder / Вертикальная анаморфная стереопара bot 9,14 GB
3D/Stereo фильмы 300 спартанцев: Расцвет империи в 3Д / 300: Rise of an Empire 3D (Ноам Мурро / Ноам Мурро / Noam Mu) [2014, фэнтези, боевик, драма, военный, BDRip-AVC] Half SideBySide / Горизонтальная анамор... bot 12,26 GB
Документальные Алтарь Победы (1-31 серии) (Алексей Смаглюк) [2009-2010 г., Документальный, военный, SATRip] Фунтик 18,45 GB
Отечественные сериалы Ангелы войны (1-4 серии из 4)(Татьяна Ходаковская) [2012 г., Драма, военный, DVDRip-AVC] Лицензия mihis 2,9 GB
Показать сообщения:    
Ответить на тему

Текущее время: 04-Дек 11:10

Часовой пояс: UTC + 3



Вы не можете начинать темы
Вы не можете отвечать на сообщения
Вы не можете редактировать свои сообщения
Вы не можете удалять свои сообщения
Вы не можете голосовать в опросах
Вы не можете прикреплять файлы к сообщениям
Вы не можете скачивать файлы