Викинги / Vikings (1-2 сезон: 1-19 серий из 19) ( Киаран Доннелли, Йохан Ренк, Кен Джиротти) [2013-2014 г., Историческая драма,приключения, боевик, WEB-DLRip-AVC ] MVO BaibaKo

Ответить на тему
Статистика раздачи [Обновить пиров]
Качаю: [ 1 ]
Скачал: [ 2 ]
 
   
 
 
Автор
Сообщение

mihis ®

Стаж: 2 года 1 месяц

Сообщений: 221

Создавать темы 20-Фев-2015 01:16

[Цитировать] 

Викинги / Vikings2 сезона: 19 серий Год выпуска: 2013-2014
Страна: Ирландия, Канада, Irish Film Board, Take 5 Productions, World 2000 Entertainment
Жанр: Историческая драма,приключения, боевик
Продолжительность: 19 x ~ 00:44:00
Перевод: Профессиональный (многоголосый, закадровый) BaibaKo
Субтитры: нет
Режиссер: Киаран Доннелли, Йохан Ренк, Кен Джиротти
В ролях: Трэвис Фиммел, Клайв Стэнден, Кэтрин Уинник, Гэбриел Бирн, Джессалин Гилсиг, Густаф Скарсгард, Джефферсон Холл, Джордж Благден, Тадж Мерфи, Диармэйд Мурта
Описание: История повествует о приключениях величайшего героя своего времени – Рагнара Лодброка. В сериале показан Рагнар со своим племенем братьев-викингов и его семьёй в процессе становления королём всех племён викингов. Рагнар – бесстрашный воин, и религиозный викинг, который объединяет все племена и распространяет среди них поклонение скандинавским богам. Согласно легенде, он – прямой потомок Одина, бога войны и воителей.

Качество: WEB-DLRip-AVC
Формат: MKV
Видео кодек: AVC
Аудио кодек: AC3
Видео: AVC, 1024x576 (16:9), 23.976 fps, 2 225 Kbps (0.157 bit/pixel)
Аудио: AC-3, 48.0 KHz, 6 ch, 384 Kbps, CBR

Название серий

Сезон 1
01. Обряды / Rites of Passage
02. Гнев северян / Wrath of Northmen
03. Обездоленные / Dispossessed
04. Испытание / Trail (24 марта)
05. Набег / Raid (31 марта)
06. Погребение мертвых / Burial of the Dead (7 апреля)
07. Королевский выкуп / A King's Ransom (14 апреля)
08. Жертвоприношение / Sacrifice (21 апреля)
09. Все изменится / All Change (28 апреля)
Сезон 2
01. Братская война / Brother`s War
02. Вторжение / Invasion
03. Предательство / Treachery
04. Око за око / Eye For an Eye
05. Истина в крови / Answers in Blood
06. Не прощенный / Unforgiven
07. Кровавый орёл / Blood Eagle
08. Бескостный / Boneless
09. Выбор / The Choice
10. Отче наш / The Lord's Prayer

MediaInfo

Полное имя : E:Vikings.02.AVC.tahiyVikings.s02.01.AVC.tahiy.mkv
Формат : Matroska
Версия формата : Version 4 / Version 2
Размер файла : 824 Мбайт
Продолжительность : 44 м.
Общий поток : 2608 Кбит/сек
Название фильма : Vikings.tahiy
Дата кодирования : UTC 2014-03-01 19:44:00
Программа кодирования : mkvmerge v6.6.0 ('The Edge Of The In Between') built on Dec 1 2013 17:55:00
Библиотека кодирования : libebml v1.3.0 + libmatroska v1.4.1
Видео
Идентификатор : 1
Формат : AVC
Формат/Информация : Advanced Video Codec
Профиль формата : [email protected]
Параметр CABAC формата : Да
Параметр ReFrames формата : 8 кадров
Идентификатор кодека : V_MPEG4/ISO/AVC
Продолжительность : 44 м.
Битрейт : 2223 Кбит/сек
Ширина : 1024 пикселя
Высота : 576 пикселей
Соотношение сторон : 16:9
Режим частоты кадров : Постоянный
Частота кадров : 23,976 кадра/сек
Цветовое пространство : YUV
Субдискретизация насыщенности : 4:2:0
Битовая глубина : 8 бит
Тип развёртки : Прогрессивная
Бит/(Пиксели*Кадры) : 0.157
Размер потока : 686 Мбайт (83%)
Заголовок : Vikings.tahiy
Библиотека кодирования : x264 core 130 r2273 b3065e6
Настройки программы : cabac=1 / ref=8 / deblock=1:-2:-2 / analyse=0x3:0x113 / me=umh / subme=10 / psy=1 / psy_rd=1.00:0.20 / mixed_ref=1 / me_range=32 / chroma_me=1 / trellis=2 / 8x8dct=1 / cqm=0 / deadzone=21,11 / fast_pskip=0 / chroma_qp_offset=-3 / threads=6 / lookahead_threads=1 / sliced_threads=0 / nr=0 / decimate=0 / interlaced=0 / bluray_compat=0 / constrained_intra=0 / bframes=10 / b_pyramid=2 / b_adapt=2 / b_bias=0 / direct=3 / weightb=1 / open_gop=0 / weightp=2 / keyint=240 / keyint_min=23 / scenecut=40 / intra_refresh=0 / rc_lookahead=40 / rc=2pass / mbtree=0 / bitrate=2223 / ratetol=1.0 / qcomp=0.60 / qpmin=0 / qpmax=69 / qpstep=4 / cplxblur=20.0 / qblur=0.5 / vbv_maxrate=50000 / vbv_bufsize=62500 / nal_hrd=none / ip_ratio=1.40 / pb_ratio=1.30 / aq=1:1.00
Язык : English
Default : Да
Forced : Нет
Аудио
Идентификатор : 2
Формат : AC-3
Формат/Информация : Audio Coding 3
Расширение режима : CM (complete main)
Параметр Endianness формата : Big
Идентификатор кодека : A_AC3
Продолжительность : 44 м.
Вид битрейта : Постоянный
Битрейт : 384 Кбит/сек
Каналы : 6 каналов
Расположение каналов : Front: L C R, Side: L R, LFE
Частота : 48,0 КГц
Битовая глубина : 16 бит
Метод сжатия : С потерями
Размер потока : 121 Мбайт (15%)
Язык : Russian
Default : Да
Forced : Нет
[Профиль]  [ЛС] 
Похожие темы
Форум Тема Автор Размер
Зарубежное кино Викинги / Northmen - A Viking Saga (2014) WEB-DL 720p | iTunes Тоха™ 2,94 GB
Зарубежные сериалы Викинги / Vikings (1-4 сезоны: 1-41 серии из 49) (Киаран Доннелли, Йохан Ренк, Кен Джиротти) [2013-2016 г., Исторический, драма, приключения, WEB-DLRip][AlexFilm] Serega624 20,71 GB
Зарубежные сериалы Викинги / Vikings (3 сезон: 1-10 серия из 10) ( Киаран Доннелли, Йохан Ренк, Кен Джиротти) [2015 г., Историческая драма,приключения, боевик, WEB-DLRip ] MVO AlexFilm mihis 5,21 GB
Зарубежные сериалы Викинги/ Vikings (3 сезон: 1-10 серии из 10) ( Киаран Доннелли, Йохан Ренк, Кен Джиротти) [2015 г., Боевик, Исторический, WEB-DL 1080p][AlexFilm] Serega624 18,36 GB
Показать сообщения:    
Ответить на тему

Текущее время: 09-Дек 02:59

Часовой пояс: UTC + 3



Вы не можете начинать темы
Вы не можете отвечать на сообщения
Вы не можете редактировать свои сообщения
Вы не можете удалять свои сообщения
Вы не можете голосовать в опросах
Вы не можете прикреплять файлы к сообщениям
Вы не можете скачивать файлы