Викинги / Vikings (3 сезон: 1-10 серия из 10) ( Киаран Доннелли, Йохан Ренк, Кен Джиротти) [2015 г., Историческая драма,приключения, боевик, WEB-DLRip ] MVO AlexFilm

Ответить на тему
Статистика раздачи [Обновить пиров]
Качаю: [ 1 ]
Скачал: [ 1 ]
 
   
 
 
Автор
Сообщение

mihis ®

Стаж: 2 года 1 месяц

Сообщений: 221

Создавать темы 20-Фев-2015 01:17

[Цитировать] 

Викинги / Vikings3 сезон: 10 серии Год выпуска: 2015
Страна: Ирландия, Канада, Irish Film Board, Take 5 Productions, World 2000 Entertainment
Жанр: Историческая драма,приключения, боевик
Продолжительность: 10 x ~ 00:44:00
Перевод: Профессиональный (многоголосый, закадровый) AlexFilm + Оригинал
Субтитры: нет
Режиссер: Киаран Доннелли, Йохан Ренк, Кен Джиротти
В ролях: Трэвис Фиммел, Клайв Стэнден, Кэтрин Уинник, Гэбриел Бирн, Джессалин Гилсиг, Густаф Скарсгард, Джефферсон Холл, Джордж Благден, Тадж Мерфи, Диармэйд Мурта
Описание: История повествует о приключениях величайшего героя своего времени – Рагнара Лодброка. В сериале показан Рагнар со своим племенем братьев-викингов и его семьёй в процессе становления королём всех племён викингов. Рагнар – бесстрашный воин, и религиозный викинг, который объединяет все племена и распространяет среди них поклонение скандинавским богам. Согласно легенде, он – прямой потомок Одина, бога войны и воителей.

Качество: WEB-DLRip
Формат: AVI
Видео кодек: XviD
Аудио кодек: MP3
Видео: 720x400 (1.80:1), 23.976 fps, XviD build 50 ~1400 kbps avg, 0.20 bit/pixel
Аудио #1: 48 kHz, MPEG Layer 3, 2 ch, ~128.00 kbps avg
Аудио #2: 48 kHz, MPEG Layer 3, 2 ch, ~128.00 kbps avg

Название серий

01 Mercenary
02 The Wanderer
03 Warrior's Fate
04 Scarred
05 The Usurper
06 Born Again
07 Paris
08 To the Gates!
09 Breaking Point
10 The Dead

MediaInfo

Общее
Полное имя : I:\Video\Vikings.S03.WEB-DLRip.AlexFilm\Vikings.s03e01.WEB-DLRip.Rus.Eng.AlexFilm.avi
Формат : AVI
Формат/Информация : Audio Video Interleave
Размер файла : 541 Мбайт
Продолжительность : 45 м.
Общий поток : 1672 Кбит/сек
Название фильма : Vikings 3x01 Mercenary @ AlexFilm
Программа кодирования : VirtualDubMod 1.5.10.2 (build 2542/release)
Библиотека кодирования : VirtualDubMod build 2542/release
Видео
Идентификатор : 0
Формат : MPEG-4 Visual
Профиль формата : Advanced [email protected]
Параметр BVOP формата : 1
Параметр QPel формата : Нет
Параметр GMC формата : Без точки перехода
Параметр матрицы формата : Default (MPEG)
Идентификатор кодека : XVID
Идентификатор кодека/Подсказка : XviD
Продолжительность : 45 м.
Битрейт : 1402 Кбит/сек
Ширина : 720 пикселей
Высота : 400 пикселей
Соотношение сторон : 16:9
Частота кадров : 23,976 кадра/сек
Цветовое пространство : YUV
Субдискретизация насыщенности : 4:2:0
Битовая глубина : 8 бит
Тип развёртки : Прогрессивная
Метод сжатия : С потерями
Бит/(Пиксели*Кадры) : 0.203
Размер потока : 454 Мбайт (84%)
Библиотека кодирования : XviD 1.2.1 (UTC 2008-12-04)
Аудио #1
Идентификатор : 1
Формат : MPEG Audio
Версия формата : Version 1
Профиль формата : Layer 3
Режим : Joint stereo
Расширение режима : MS Stereo
Идентификатор кодека : 55
Идентификатор кодека/Подсказка : MP3
Продолжительность : 45 м.
Вид битрейта : Постоянный
Битрейт : 128 Кбит/сек
Каналы : 2 канала
Частота : 48,0 КГц
Метод сжатия : С потерями
Размер потока : 41,5 Мбайт (8%)
Выравнивание : Соединение по промежуткам
Продолжительность промежутка : 42 мс. (1,00 видеокадр)
Время предзагрузки промежутка : 504 мс.
Заголовок : Russian (AlexFilm)
Аудио #2
Идентификатор : 2
Формат : MPEG Audio
Версия формата : Version 1
Профиль формата : Layer 3
Режим : Joint stereo
Расширение режима : MS Stereo
Идентификатор кодека : 55
Идентификатор кодека/Подсказка : MP3
Продолжительность : 45 м.
Вид битрейта : Постоянный
Битрейт : 128 Кбит/сек
Каналы : 2 канала
Частота : 48,0 КГц
Метод сжатия : С потерями
Размер потока : 41,5 Мбайт (8%)
Выравнивание : Соединение по промежуткам
Продолжительность промежутка : 42 мс. (1,00 видеокадр)
Время предзагрузки промежутка : 504 мс.
Заголовок : English


Последний раз редактировалось: mihis (2015-04-25 09:39), всего редактировалось 10 раз(а)
[Профиль]  [ЛС] 

Hydroponic

Стаж: 5 лет 4 месяца

Сообщений: 34

Создавать темы 20-Фев-2015 08:31 (спустя 7 часов)

[Цитировать] 

ай...молодца) долго ждал спасибо большое!!!!
[Профиль]  [ЛС] 

hardius

Стаж: 6 лет 2 месяца

Сообщений: 528

Создавать темы 20-Фев-2015 16:19 (спустя 7 часов)

[Цитировать] 

Отлично, спасибо за раздачу Image011
[Профиль]  [ЛС] 

KLDSH

Стаж: 8 лет 3 месяца

Сообщений: 8

Создавать темы 26-Фев-2015 19:56 (спустя 6 дней)

[Цитировать] 

По каким дням будут выходить серии?
[Профиль]  [ЛС] 

mihis ®

Стаж: 2 года 1 месяц

Сообщений: 221

Создавать темы 27-Фев-2015 10:02 (спустя 14 часов)

[Цитировать] 

Замена на WEB DLRip, добавлена 2 серия
[Профиль]  [ЛС] 

mihis ®

Стаж: 2 года 1 месяц

Сообщений: 221

Создавать темы 07-Мар-2015 13:18 (спустя 8 дней)

[Цитировать] 

добавлена 3 серия
[Профиль]  [ЛС] 

mihis ®

Стаж: 2 года 1 месяц

Сообщений: 221

Создавать темы 13-Мар-2015 10:05 (спустя 5 дней)

[Цитировать] 

Заменены русские дорожки в 1 и 3 сериях,Добавлена 4 серия
[Профиль]  [ЛС] 

mihis ®

Стаж: 2 года 1 месяц

Сообщений: 221

Создавать темы 20-Мар-2015 22:01 (спустя 7 дней)

[Цитировать] 

Замена 4 серии, Добавлена 5 серия
[Профиль]  [ЛС] 

mihis ®

Стаж: 2 года 1 месяц

Сообщений: 221

Создавать темы 28-Мар-2015 09:40 (спустя 7 дней)

[Цитировать] 

добавлена 6 серия
[Профиль]  [ЛС] 

mihis ®

Стаж: 2 года 1 месяц

Сообщений: 221

Создавать темы 04-Апр-2015 09:44 (спустя 7 дней)

[Цитировать] 

добавлена 7 серия
[Профиль]  [ЛС] 

mihis ®

Стаж: 2 года 1 месяц

Сообщений: 221

Создавать темы 10-Апр-2015 23:20 (спустя 6 дней)

[Цитировать] 

добавлена 8 серия
[Профиль]  [ЛС] 

mihis ®

Стаж: 2 года 1 месяц

Сообщений: 221

Создавать темы 17-Апр-2015 23:48 (спустя 7 дней)

[Цитировать] 

добавлена 9 серия
[Профиль]  [ЛС] 

mihis ®

Стаж: 2 года 1 месяц

Сообщений: 221

Создавать темы 25-Апр-2015 09:39 (спустя 7 дней)

[Цитировать] 

добавлена 10 серия Финал
[Профиль]  [ЛС] 

hardius

Стаж: 6 лет 2 месяца

Сообщений: 528

Создавать темы 25-Апр-2015 17:42 (спустя 8 часов)

[Цитировать] 

Вот теперь можно и посмотреть, спасибо.
[Профиль]  [ЛС] 

KLDSH

Стаж: 8 лет 3 месяца

Сообщений: 8

Создавать темы 25-Апр-2015 20:57 (спустя 3 часа)

[Цитировать] 

Ждём 4ый сезон!) сериал, супер!
[Профиль]  [ЛС] 
Похожие темы
Форум Тема Автор Размер
Зарубежное кино Викинги / Northmen - A Viking Saga (2014) WEB-DL 720p | iTunes Тоха™ 2,94 GB
Зарубежные сериалы Викинги / Vikings (1-2 сезон: 1-19 серий из 19) ( Киаран Доннелли, Йохан Ренк, Кен Джиротти) [2013-2014 г., Историческая драма,приключения, боевик, WEB-DLRip-AVC ] MVO BaibaKo mihis 15,17 GB
Зарубежные сериалы Викинги / Vikings (1-4 сезоны: 1-40 серии из 49) (Киаран Доннелли, Йохан Ренк, Кен Джиротти) [2013-2016 г., Исторический, драма, приключения, WEB-DLRip][AlexFilm] Serega624 20,2 GB
Зарубежные сериалы Викинги/ Vikings (3 сезон: 1-10 серии из 10) ( Киаран Доннелли, Йохан Ренк, Кен Джиротти) [2015 г., Боевик, Исторический, WEB-DL 1080p][AlexFilm] Serega624 18,36 GB
Показать сообщения:    
Ответить на тему

Текущее время: 05-Дек 07:23

Часовой пояс: UTC + 3



Вы не можете начинать темы
Вы не можете отвечать на сообщения
Вы не можете редактировать свои сообщения
Вы не можете удалять свои сообщения
Вы не можете голосовать в опросах
Вы не можете прикреплять файлы к сообщениям
Вы не можете скачивать файлы