Двойной просчет / Double Jeopardy (Брюс Бирсфорд) (1999, триллер, драма, криминал, детектив, WEB-DL 720p)

Ответить на тему
Статистика раздачи [Обновить пиров]
Нет
 
   
 
 
Автор
Сообщение

anatolyi100 ®

Стаж: 6 лет 2 месяца

Сообщений: 826

Откуда: г.герой Севастополь

Создавать темы 02-Мар-2015 15:44

[Цитировать] 

Двойной просчет / Double Jeopardy
Год выпуска: 1999
Страна: США, Германия, Канада
Жанр: Tриллер, драма, криминал, детектив
Продолжительность: 01:45:16
Перевод: Профессиональный двухголосый, авторский
Режиссер: Брюс Бирсфорд
В ролях: Томми Ли Джонс, Эшли Джадд, Брюс Гринвуд, Аннабет Гиш, Рома Маффиа, Джей Бразо, Дейв Хэгер, Давиния МакФэдден, Анна Хэган, Спенсер Трит Кларк
Описание: Молодой женщине пришлось отбывать срок за преступление, к которому она не имела никакого отношения. Более того, выяснилось, что подставил её собственный муж, который на самом деле был жив-здоров и прекрасно себя чувствовал. Однако, он забыл принять во внимание, на что способна Либби, когда её вероломно предают. Срок закончился, и она отправляется восстанавливать справедливость. А вслед за Либби устремляется офицер по надзору за выпущенными на свободу заключёнными…
Качество: WEB-DL (720p)
Формат: MKV
Видео кодек: h.264
Аудио кодек: АС-3
Видео: 3937 Кб/с, 1280x534, 23.976 кадр/с
Аудио: АС-3, 2 ch, 192 Кб/с
Субтитры: Английские

Аудио

• №1: Русский (АС3, 2 ch, 192 Кб/с) Профессиональный двухголосый
• №2: Русский (АС3, 2 ch, 192 Кб/с) авторский одноголосый [Андрей Гаврилов]
• №3: Русский (АС3, 2 ch, 192 Кб/с) авторский одноголосый [Юрий Живов]
• №4: Русский (АС3, 2 ch, 192 Кб/с) авторский одноголосый [Максим Латышев]
• №5: Английский (АС3, 2 ch, 192 Кб/с)

MI

Общее
Уникальный идентификатор : 225157742649758278001452149052546909285 (0xA963CDCAF28404569606DFE8B5BA8465)
Полное имя : G:\FILMS\Dvojnoj.proschet.1999.x264.WEB-DL(720p).mkv
Формат : Matroska
Версия формата : Version 4 / Version 2
Размер файла : 3,82 Гбайт
Продолжительность : 1 ч. 45 м.
Общий поток : 5192 Кбит/сек
Название фильма : Двойной просчет | Double Jeopardy [1999] -=WEB-DL (720p)=-
Дата кодирования : UTC 2013-05-02 17:16:21
Программа кодирования : mkvmerge v6.1.0 ('Old Devil') built on Mar 2 2013 14:32:37
Библиотека кодирования : libebml v1.3.0 + libmatroska v1.4.0
Видео
Идентификатор : 1
Формат : AVC
Формат/Информация : Advanced Video Codec
Профиль формата : [email protected]
Параметр CABAC формата : Нет
Параметр ReFrames формата : 2 кадра
Идентификатор кодека : V_MPEG4/ISO/AVC
Продолжительность : 1 ч. 45 м.
Битрейт : 3937 Кбит/сек
Ширина : 1280 пикселей
Высота : 534 пикселя
Соотношение сторон : 2,40:1
Режим частоты кадров : Постоянный
Частота кадров : 23,976 кадра/сек
Цветовое пространство : YUV
Субдискретизация насыщенности : 4:2:0
Битовая глубина : 8 бит
Тип развёртки : Прогрессивная
Бит/(Пиксели*Кадры) : 0.240
Размер потока : 2,90 Гбайт (76%)
Заголовок : Double Jeopardy (1999) - Release for HDCLUB
Язык : English
Default : Да
Forced : Нет
Основные цвета : BT.709
Характеристики трансфера : BT.709
Коэффициенты матрицы : BT.709
Аудио #1
Идентификатор : 2
Формат : AC-3
Формат/Информация : Audio Coding 3
Расширение режима : CM (complete main)
Параметр Endianness формата : Big
Идентификатор кодека : A_AC3
Продолжительность : 1 ч. 45 м.
Вид битрейта : Постоянный
Битрейт : 384 Кбит/сек
Каналы : 6 каналов
Расположение каналов : Front: L C R, Side: L R, LFE
Частота : 48,0 КГц
Битовая глубина : 16 бит
Метод сжатия : С потерями
Размер потока : 289 Мбайт (7%)
Заголовок : Многоголосый закадровый, AC3 5.1 @ 384 kbps
Язык : Russian
Default : Да
Forced : Нет
Аудио #2
Идентификатор : 3
Формат : AC-3
Формат/Информация : Audio Coding 3
Расширение режима : CM (complete main)
Параметр Endianness формата : Big
Идентификатор кодека : A_AC3
Продолжительность : 1 ч. 45 м.
Вид битрейта : Постоянный
Битрейт : 192 Кбит/сек
Каналы : 2 канала
Расположение каналов : Front: L R
Частота : 48,0 КГц
Битовая глубина : 16 бит
Метод сжатия : С потерями
Размер потока : 145 Мбайт (4%)
Заголовок : Авторский [Андрей Гаврилов] AC3 2.0 @ 192 kbps
Язык : Russian
Default : Нет
Forced : Нет
Аудио #3
Идентификатор : 4
Формат : AC-3
Формат/Информация : Audio Coding 3
Расширение режима : CM (complete main)
Параметр Endianness формата : Big
Идентификатор кодека : A_AC3
Продолжительность : 1 ч. 45 м.
Вид битрейта : Постоянный
Битрейт : 192 Кбит/сек
Каналы : 2 канала
Расположение каналов : Front: L R
Частота : 48,0 КГц
Битовая глубина : 16 бит
Метод сжатия : С потерями
Размер потока : 145 Мбайт (4%)
Заголовок : Авторский [Юрий Живов] AC3 2.0 @ 192 kbps
Язык : Russian
Default : Нет
Forced : Нет
Аудио #4
Идентификатор : 5
Формат : AC-3
Формат/Информация : Audio Coding 3
Расширение режима : CM (complete main)
Параметр Endianness формата : Big
Идентификатор кодека : A_AC3
Продолжительность : 1 ч. 45 м.
Вид битрейта : Постоянный
Битрейт : 192 Кбит/сек
Каналы : 2 канала
Расположение каналов : Front: L R
Частота : 48,0 КГц
Битовая глубина : 16 бит
Метод сжатия : С потерями
Размер потока : 145 Мбайт (4%)
Заголовок : Авторский [Максим Латышев] AC3 2.0 @ 192 kbps
Язык : Russian
Default : Нет
Forced : Нет
Аудио #5
Идентификатор : 6
Формат : AC-3
Формат/Информация : Audio Coding 3
Расширение режима : CM (complete main)
Параметр Endianness формата : Big
Идентификатор кодека : A_AC3
Продолжительность : 1 ч. 45 м.
Вид битрейта : Постоянный
Битрейт : 192 Кбит/сек
Каналы : 2 канала
Расположение каналов : Front: L R
Частота : 48,0 КГц
Битовая глубина : 16 бит
Метод сжатия : С потерями
Размер потока : 145 Мбайт (4%)
Заголовок : AC3 2.0 @ 192 kbps
Язык : English
Default : Нет
Forced : Нет
Текст
Идентификатор : 7
Формат : UTF-8
Идентификатор кодека : S_TEXT/UTF8
Идентификатор кодека/Информация : UTF-8 Plain Text
Язык : English
Default : Нет
Forced : Нет
Меню
00:00:00.000 : en:The Good Life
00:06:32.000 : en:The Morning Star
00:13:26.000 : en:Testimony
00:20:50.000 : en:Using Her Head
00:27:36.000 : en:A Christmas Present
00:32:31.000 : en:Conditional Parole
00:40:25.000 : en:School Records
00:46:15.000 : en:"Don't Go Anywhere."
00:52:39.000 : en:Angela Ryder
00:58:46.000 : en:Art Search
01:06:20.000 : en:Bachelor Auction
01:15:23.000 : en:The Red Umbrella
01:21:17.000 : en:Tourist Trap
01:29:09.000 : en:Number 3
01:36:22.000 : en:Matty
01:40:32.000 : en:End Credits

Скриншоты





[Профиль]  [ЛС] 
Похожие темы
Форум Тема Автор Размер
Отечественные сериалы Двойная сплошная [01-16 из 16] (2015) WEB-DLRip от Files-x Олег_SevStar 9,34 GB
Показать сообщения:    
Ответить на тему

Текущее время: 09-Дек 04:55

Часовой пояс: UTC + 3



Вы не можете начинать темы
Вы не можете отвечать на сообщения
Вы не можете редактировать свои сообщения
Вы не можете удалять свои сообщения
Вы не можете голосовать в опросах
Вы не можете прикреплять файлы к сообщениям
Вы не можете скачивать файлы