Зверь-преследователь / Ching yan (Данте Лам) (2008, боевик, триллер, BDRip-AVC)

Ответить на тему
Статистика раздачи [Обновить пиров]
Нет
 
   
 
 
Автор
Сообщение

anatolyi100 ®

Стаж: 6 лет 2 месяца

Сообщений: 826

Откуда: г.герой Севастополь

Создавать темы 09-Мар-2015 09:53

[Цитировать] 

Зверь-преследователь / Ching yan
Год выпуска: 2008
Страна: Гонконг
Студия: Emperor Motion Pictures, Sil-Metropole Organisation
Жанр: Боевик, триллер
Продолжительность: 01:50:05
Перевод: Авторский одноголосый (Сергей Кузнецов)
Режиссер: Данте Лам
В ролях: Николас Тсе, Ник Чун, Чжан Цзинчу, Мяо Пу, Лью Кай Чи, Шерман Чунг, Хе Чжан, Конг Лау, K. Квок, Танг Чо «Джо» Чунг, Филип Кеунг
Описание: Когда дело касалось работы, полицейский Тонг от своих подчиненных не терпел промахов и безответственности, до тех пор пока сам не совершил непоправимую ошибку. Во время погони за беглым преступником, разыскивающимся за ограбление, он случайно убивает маленькую девочку. Не в силах простить себя, он ищет утешение в дружбе с сестрой-близняшкой убитой девочки, Линг, наблюдая за ней в школе или на прогулках. По нелепому совпадению, прокурор, ведущая дело задержанного Тонгом грабителя — мать обоих девочек. Чтобы заставить прокурора проиграть дело, преступники нанимают безжалостного наемника похитить Линг. Тонг, ставший свидетелем похищения, отправляется по следу наемника, чтобы не дать случиться очередной трагедии.

Качество: BDRip-AVC
Формат: MKV
Видео кодек: x264
Аудио кодек: АС-3
Видео: 3500 Кб/с, 1024x576, 24.000 кдр/с
Аудио #1: Русский (AC3, 2 ch, 192 Кб/с) / Авторский одноголосый (Сергей Кузнецов)
Аудио #2: Китайский (AC3, 6 ch, 448 Кб/с)
Субтитры: Русские
Релиз:
Рип, работа с аудио - Викс

MI

Общее
Уникальный идентификатор : 243236061965005045940614573390947609020 (0xB6FD8FC062BF11FDB6FBCF24E226E9BC)
Полное имя : G:\FILMS\Ching.yan.2008.x264.BDRip-AVC-MediaClub.mkv
Формат : Matroska
Версия формата : Version 2
Размер файла : 3,18 Гбайт
Продолжительность : 1 ч. 50 м.
Общий поток : 4140 Кбит/сек
Название фильма : Ching yan (2008) BDRip-AVC =MediaClub= [Викс]
Дата кодирования : UTC 2015-03-06 22:26:44
Программа кодирования : mkvmerge v5.8.0 ('No Sleep / Pillow') built on Sep 2 2012 15:37:04
Библиотека кодирования : libebml v1.2.3 + libmatroska v1.3.0
Видео
Идентификатор : 1
Формат : AVC
Формат/Информация : Advanced Video Codec
Профиль формата : [email protected]
Параметр CABAC формата : Да
Параметр ReFrames формата : 9 кадров
Идентификатор кодека : V_MPEG4/ISO/AVC
Продолжительность : 1 ч. 50 м.
Битрейт : 3500 Кбит/сек
Ширина : 1024 пикселя
Высота : 576 пикселей
Соотношение сторон : 16:9
Режим частоты кадров : Постоянный
Частота кадров : 24,000 кадра/сек
Цветовое пространство : YUV
Субдискретизация насыщенности : 4:2:0
Битовая глубина : 8 бит
Тип развёртки : Прогрессивная
Бит/(Пиксели*Кадры) : 0.247
Размер потока : 2,63 Гбайт (83%)
Библиотека кодирования : x264 core 125 r2208 d9d2288
Настройки программы : cabac=1 / ref=9 / deblock=1:-3:-3 / analyse=0x3:0x133 / me=umh / subme=11 / psy=1 / psy_rd=1.00:0.25 / mixed_ref=1 / me_range=48 / chroma_me=1 / trellis=2 / 8x8dct=1 / cqm=0 / deadzone=21,11 / fast_pskip=0 / chroma_qp_offset=-4 / threads=12 / lookahead_threads=2 / sliced_threads=0 / nr=0 / decimate=0 / interlaced=0 / bluray_compat=0 / constrained_intra=0 / bframes=8 / b_pyramid=2 / b_adapt=2 / b_bias=0 / direct=3 / weightb=1 / open_gop=0 / weightp=2 / keyint=240 / keyint_min=23 / scenecut=40 / intra_refresh=0 / rc=2pass / mbtree=0 / bitrate=3500 / ratetol=1.0 / qcomp=0.60 / qpmin=0 / qpmax=69 / qpstep=4 / cplxblur=20.0 / qblur=0.5 / ip_ratio=1.40 / pb_ratio=1.30 / aq=1:1.00
Язык : Chinese
Default : Да
Forced : Нет
Аудио #1
Идентификатор : 2
Формат : AC-3
Формат/Информация : Audio Coding 3
Расширение режима : CM (complete main)
Параметр Endianness формата : Big
Идентификатор кодека : A_AC3
Продолжительность : 1 ч. 50 м.
Вид битрейта : Постоянный
Битрейт : 192 Кбит/сек
Каналы : 2 канала
Расположение каналов : Front: L R
Частота : 48,0 КГц
Битовая глубина : 16 бит
Метод сжатия : С потерями
Размер потока : 151 Мбайт (5%)
Язык : Russian
Default : Да
Forced : Нет
Аудио #2
Идентификатор : 3
Формат : AC-3
Формат/Информация : Audio Coding 3
Расширение режима : CM (complete main)
Параметр Endianness формата : Big
Идентификатор кодека : A_AC3
Продолжительность : 1 ч. 50 м.
Вид битрейта : Постоянный
Битрейт : 448 Кбит/сек
Каналы : 6 каналов
Расположение каналов : Front: L C R, Side: L R, LFE
Частота : 48,0 КГц
Битовая глубина : 16 бит
Метод сжатия : С потерями
Размер потока : 353 Мбайт (11%)
Язык : Chinese
Default : Нет
Forced : Нет
Текст
Идентификатор : 4
Формат : UTF-8
Идентификатор кодека : S_TEXT/UTF8
Идентификатор кодека/Информация : UTF-8 Plain Text
Язык : Russian
Default : Нет
Forced : Нет
Меню
00:00:00.000 : :Chapter 01
00:02:06.832 : :Chapter 02
00:07:30.040 : :Chapter 03
00:13:51.125 : :Chapter 04
00:19:45.875 : :Chapter 05
00:27:25.500 : :Chapter 06
00:34:09.583 : :Chapter 07
00:39:12.875 : :Chapter 08
00:43:13.750 : :Chapter 09
00:49:54.500 : :Chapter 10
00:56:47.541 : :Chapter 11
01:04:27.458 : :Chapter 12
01:12:29.875 : :Chapter 13
01:18:05.666 : :Chapter 14
01:22:46.416 : :Chapter 15
01:30:13.957 : :Chapter 16
01:38:33.207 : :Chapter 17
01:48:03.000 : :Chapter 18

Скриншоты




[Профиль]  [ЛС] 

anatolyi100 ®

Стаж: 6 лет 2 месяца

Сообщений: 826

Откуда: г.герой Севастополь

Создавать темы 09-Мар-2015 09:54 (спустя 1 минута)

[Цитировать] 

Перенёс из HD в обычный....
[Профиль]  [ЛС] 
Показать сообщения:    
Ответить на тему

Текущее время: 09-Дек 08:44

Часовой пояс: UTC + 3



Вы не можете начинать темы
Вы не можете отвечать на сообщения
Вы не можете редактировать свои сообщения
Вы не можете удалять свои сообщения
Вы не можете голосовать в опросах
Вы не можете прикреплять файлы к сообщениям
Вы не можете скачивать файлы