Ленинград 46 (Серии: 1-32 из 32) (Игорь Копылов) [2015 г., Детектив, драма, HDTVRip (AVC)]

Ответить на тему
Статистика раздачи [Обновить пиров]
Буду качать: [ 1 ]
 
   
 
 
Автор
Сообщение

Serega624 ®

Стаж: 7 лет 3 месяца

Сообщений: 2649

Откуда: Севастополь

Создавать темы 24-Мар-2015 10:07

[Цитировать] 

Ленинград 46 Год выпуска: 2015
Произведено: Россия, Кинокомпания "Триикс Медиа"
Жанр: Детектив, драма
Продолжительность: ~ 00:50:00
Режиссер:
Игорь Копылов
В ролях:
Сергей Гармаш, Евгений Миллер, Анна Табанина, Алексей Горбунов, Александр Лыков, Андрей Мерзликин, Даниил Страхов, Дмитрий Ульянов, Елена Коренева, Александра Богданова (IV), Эдуард Флёров, Пётр Зайченко, Роман Курцын, Кирилл Полухин, Евгений Леонов-Гладышев...
Описание: История о мужестве, драма человеческих судеб, впервые открывающая многие страницы жизни послевоенного Ленинграда — суровой и подчас жестокой. Город, только что переживший блокаду и еще не оправившийся от голода, разрушений, смертей. Здесь милиция ведет свою неравную войну с преступностью, накрывшей Ленинград после войны… После фронта, плена, штрафбата и госпиталя в Ленинград возвращается бывший преподаватель русского языка и литературы Игорь Данилов. В поезде он знакомится с командировочным Тарасовым. Случайно столкнув Данилова и Тарасова в вагоне поезда, жизнь будет сводить их не раз и не два… Потеряв все – семью, работу, жилье — бывший преподаватель Данилов оказывается по другую сторону закона. Пытаясь добиться справедливости и отомстить тем, кто исковеркал его жизнь, он все больше погружается в криминальный мир послевоенного Ленинграда, постепенно превращаясь в одного из самых хитрых и опасных
Качество: HDTVRip (AVC)
Формат:AVC
Видео кодек: MPEG-4
Аудио кодек: AC3
Видео: MPEG-4 AVC, ~ 1900 Кбит/с, 1024х576
Аудио: АС3, 2 ch, 256 Кбит/с

MI

General
Unique ID : 228185213817516444128271227891503286051 (0xABAADFA5483CD8C8A5850F1089BB4723)
Complete name : C:\Документальное\Ленинград 46\Ленинград 46-AVC\02 серия.mkv
Format : Matroska
Format version : Version 2
File size : 714 MiB
Duration : 46mn 16s
Overall bit rate : 2 158 Kbps
Encoded date : UTC 2015-03-26 08:40:43
Writing application : mkvmerge v7.6.0 ('Garden of Dreams') 32bit built on Feb 11 2015 00:18:47
Writing library : libebml v1.3.1 + libmatroska v1.4.2
Video
ID : 1
Format : AVC
Format/Info : Advanced Video Codec
Format profile : [email protected]
Format settings, CABAC : Yes
Format settings, ReFrames : 9 frames
Codec ID : V_MPEG4/ISO/AVC
Duration : 46mn 16s
Bit rate : 1 900 Kbps
Width : 1 024 pixels
Height : 576 pixels
Display aspect ratio : 16:9
Frame rate mode : Constant
Frame rate : 25.000 fps
Color space : YUV
Chroma subsampling : 4:2:0
Bit depth : 8 bits
Scan type : Progressive
Bits/(Pixel*Frame) : 0.129
Stream size : 615 MiB (86%)
Writing library : x264 core 144 r2525 40bb568
Encoding settings : cabac=1 / ref=9 / deblock=1:-3:-3 / analyse=0x3:0x113 / me=umh / subme=9 / psy=1 / psy_rd=1.00:0.00 / mixed_ref=1 / me_range=32 / chroma_me=0 / trellis=2 / 8x8dct=1 / cqm=0 / deadzone=21,11 / fast_pskip=1 / chroma_qp_offset=-2 / threads=4 / lookahead_threads=4 / sliced_threads=0 / nr=0 / decimate=0 / interlaced=0 / bluray_compat=0 / constrained_intra=0 / bframes=9 / b_pyramid=2 / b_adapt=2 / b_bias=0 / direct=1 / weightb=1 / open_gop=0 / weightp=2 / keyint=250 / keyint_min=25 / scenecut=40 / intra_refresh=0 / rc_lookahead=40 / rc=2pass / mbtree=1 / bitrate=1900 / ratetol=1.0 / qcomp=0.60 / qpmin=0 / qpmax=69 / qpstep=4 / cplxblur=20.0 / qblur=0.5 / ip_ratio=1.40 / aq=1:1.00
Default : Yes
Forced : No
Color primaries : BT.709
Transfer characteristics : BT.709
Matrix coefficients : BT.709
Audio
ID : 2
Format : AC-3
Format/Info : Audio Coding 3
Mode extension : CM (complete main)
Format settings, Endianness : Big
Codec ID : A_AC3
Duration : 46mn 16s
Bit rate mode : Constant
Bit rate : 256 Kbps
Channel(s) : 2 channels
Channel positions : Front: L R
Sampling rate : 48.0 KHz
Bit depth : 16 bits
Compression mode : Lossy
Stream size : 84.7 MiB (12%)
Default : Yes
Forced : No


Последний раз редактировалось: Serega624 (2015-04-18 07:45), всего редактировалось 15 раз(а)
[Профиль]  [ЛС] 

Serega624 ®

Стаж: 7 лет 3 месяца

Сообщений: 2649

Откуда: Севастополь

Создавать темы 25-Мар-2015 17:23 (спустя 1 день 7 часов)

[Цитировать] 

Добавлена 3-4 серии.
[Профиль]  [ЛС] 

Serega624 ®

Стаж: 7 лет 3 месяца

Сообщений: 2649

Откуда: Севастополь

Создавать темы 26-Мар-2015 18:48 (спустя 1 день 1 час)

[Цитировать] 

Добавлена 5-6 серии.
[Профиль]  [ЛС] 

NIGGA

Стаж: 7 лет 8 месяцев

Сообщений: 467

Откуда: Ghetto

Создавать темы 27-Мар-2015 07:47 (спустя 12 часов)

[Цитировать] 

Image193
[Профиль]  [ЛС] 

Serega624 ®

Стаж: 7 лет 3 месяца

Сообщений: 2649

Откуда: Севастополь

Создавать темы 28-Мар-2015 15:52 (спустя 1 день 8 часов)

[Цитировать] 

Добавлена 7-8 серии.
[Профиль]  [ЛС] 

NIGGA

Стаж: 7 лет 8 месяцев

Сообщений: 467

Откуда: Ghetto

Создавать темы 31-Мар-2015 08:20 (спустя 2 дня 16 часов)

[Цитировать] 

Где продолжение?
[Профиль]  [ЛС] 

Serega624 ®

Стаж: 7 лет 3 месяца

Сообщений: 2649

Откуда: Севастополь

Создавать темы 31-Мар-2015 16:59 (спустя 8 часов)

[Цитировать] 

Добавлена 9-10 серии.
[Профиль]  [ЛС] 

Serega624 ®

Стаж: 7 лет 3 месяца

Сообщений: 2649

Откуда: Севастополь

Создавать темы 01-Апр-2015 17:48 (спустя 1 день)

[Цитировать] 

Добавлена 11-12 серии.
[Профиль]  [ЛС] 

Олег_SevStar

Стаж: 7 лет 8 месяцев

Сообщений: 2425

Откуда: из Союза...

Создавать темы 02-Апр-2015 13:14 (спустя 19 часов)

[Цитировать] 

Кто принимал раздачу? Раньше мы могли видеть, сейчас нас этого лишили. Это не повтор раздачи http://sevtracker.org/viewtopic.php?t=88901 Качество видео то другой!!!
Сам удивился, НТВ в HD стал транслировать
[Профиль]  [ЛС] 

Serega624 ®

Стаж: 7 лет 3 месяца

Сообщений: 2649

Откуда: Севастополь

Создавать темы 02-Апр-2015 17:09 (спустя 3 часа)

[Цитировать] 

721495Кто принимал раздачу? Раньше мы могли видеть, сейчас нас этого лишили. Это не повтор раздачи http://sevtracker.org/viewtopic.php?t=88901 Качество видео то другой!!!
Сам удивился, НТВ в HD стал транслировать
MediaInfo разные . Качество разное. bit rate выше значит качество звука лучше так что раздачи разные.
[Профиль]  [ЛС] 

Serega624 ®

Стаж: 7 лет 3 месяца

Сообщений: 2649

Откуда: Севастополь

Создавать темы 02-Апр-2015 22:56 (спустя 5 часов)

[Цитировать] 

Добавлена 13-14 серии.
[Профиль]  [ЛС] 

Олег_SevStar

Стаж: 7 лет 8 месяцев

Сообщений: 2425

Откуда: из Союза...

Создавать темы 03-Апр-2015 13:19 (спустя 14 часов)

[Цитировать] 

MediaInfo разные . Качество разное. bit rate выше значит качество звука лучше так что раздачи разные.
Так я о том же Image020
[Профиль]  [ЛС] 

Serega624 ®

Стаж: 7 лет 3 месяца

Сообщений: 2649

Откуда: Севастополь

Создавать темы 03-Апр-2015 17:26 (спустя 4 часа)

[Цитировать] 

Добавлена 15-16 серии.
[Профиль]  [ЛС] 

Serega624 ®

Стаж: 7 лет 3 месяца

Сообщений: 2649

Откуда: Севастополь

Создавать темы 07-Апр-2015 16:30 (спустя 3 дня)

[Цитировать] 

Добавлена 17-18 серии.
[Профиль]  [ЛС] 

Serega624 ®

Стаж: 7 лет 3 месяца

Сообщений: 2649

Откуда: Севастополь

Создавать темы 08-Апр-2015 17:48 (спустя 1 день 1 час)

[Цитировать] 

Добавлена 19-20 серии.
[Профиль]  [ЛС] 

Serega624 ®

Стаж: 7 лет 3 месяца

Сообщений: 2649

Откуда: Севастополь

Создавать темы 09-Апр-2015 19:37 (спустя 1 день 1 час)

[Цитировать] 

Добавлена 21-22 серии.
[Профиль]  [ЛС] 

Serega624 ®

Стаж: 7 лет 3 месяца

Сообщений: 2649

Откуда: Севастополь

Создавать темы 10-Апр-2015 20:15 (спустя 1 день)

[Цитировать] 

Добавлена 23-24 серии.
[Профиль]  [ЛС] 

Serega624 ®

Стаж: 7 лет 3 месяца

Сообщений: 2649

Откуда: Севастополь

Создавать темы 14-Апр-2015 21:00 (спустя 4 дня)

[Цитировать] 

Добавлена 25-26 серии.
[Профиль]  [ЛС] 

Serega624 ®

Стаж: 7 лет 3 месяца

Сообщений: 2649

Откуда: Севастополь

Создавать темы 15-Апр-2015 17:21 (спустя 20 часов)

[Цитировать] 

Добавлена 27-28 серии.
[Профиль]  [ЛС] 

Serega624 ®

Стаж: 7 лет 3 месяца

Сообщений: 2649

Откуда: Севастополь

Создавать темы 16-Апр-2015 18:23 (спустя 1 день 1 час)

[Цитировать] 

Добавлена 29-30 серии.
[Профиль]  [ЛС] 

Serega624 ®

Стаж: 7 лет 3 месяца

Сообщений: 2649

Откуда: Севастополь

Создавать темы 18-Апр-2015 07:46 (спустя 1 день 13 часов)

[Цитировать] 

Добавлена 31-32 серии.
[Профиль]  [ЛС] 
Похожие темы
Форум Тема Автор Размер
Отечественные сериалы Ленинград 46 (1-32 серия из 32 + Послесловие) (Игорь Копылов) [2015 г., Драма, криминал SATRip] mihis 17,75 GB
Показать сообщения:    
Ответить на тему

Текущее время: 08-Дек 10:48

Часовой пояс: UTC + 3



Вы не можете начинать темы
Вы не можете отвечать на сообщения
Вы не можете редактировать свои сообщения
Вы не можете удалять свои сообщения
Вы не можете голосовать в опросах
Вы не можете прикреплять файлы к сообщениям
Вы не можете скачивать файлы