ЧОП / Сезон: 1 / Серии: 16 из 16 (Михаил Соловьев) [2015, Ситком, комедия, WEB-DLRip]

Ответить на тему
Статистика раздачи [Обновить пиров]
Нет
 
   
 
 
Автор
Сообщение

amadeus1975 ®

Стаж: 8 лет 1 месяц

Сообщений: 387

Создавать темы 16-Апр-2015 12:06

[Цитировать] 

ЧОП Год выпуска: 2015
Производство: Россия," Гуд Стори Медиа"
Жанр: Ситком, комедия
Продолжительность: ~ 00:24:00
Режиссёр: Михаил Соловьев
В ролях: Сергей Стёпин, Олег Масленников-Войтов, Сергей Терещенко, Сэм Никель, Денис Бузин, Яна Кошкина, Дмитрий Белоцерковский, Али Алиев, Ислам Мамергов, Виталий Гумеров
Описание: Сериал повествует о жизни бизнес-центра «Соловей», в котором трудится частное охранное предприятие «Кедр». Лев Борисович, начальник ЧОП, является, как он сам считает, не только охранником материальных, но и морально-нравственных ценностей. В его подчинении находятся четыре охранника — Федя, Толя, Слава и новичок Андрей. Андрей мечтает стать рок-звездой, поэтому работой охранника не дорожит, но в первый же рабочий день встречает Снежану, работницу спа-салона, и потихоньку втягивается в будни бизнес-центра.Ограбление спермобанка, взрыв здания, разбитая «Феррари» — это не новый фильм с Джейсоном Стетхемом, а всего лишь история о паре дней из скромной жизни охранников бизнес-центра «Соловей».
Комедийный сериал ТНТ от создателей «Физрука» и «Реальных пацанов».
Ситком «ЧОП» на канале ТНТ рассказывает о тяжелых буднях не отягощенных интеллектом сотрудников частного охранного предприятия. Автор идеи — Антон Щукин, который также выступил как один из продюсеров сериала. Режиссер «ЧОПа» — Михаил Соловьев, снявший в свое время сериалы «Золотые» (продолжение многосерийного фильма о золотой молодежи «Барвиха»)и «Радио SEX».
Главные роли в ситкоме «ЧОП» сыграли: Лев Борисович — Сергей Степин; Толя — Геннадий Масленников; Федя — Сергей Терещенко; Андрей — Артур Гальченко (Сэм Никель); Слава — Денис Бузин; Снежана — Яна Кошкина; Виталик — Дмитрий Белоцерковский. Также в сериале снялись: Татьяна Рыбинец, Али Алиев, Виталий Гумеров, Александр Зарядин, Максим Артамонов, Алексей Кухаренко, Алексей Моисеев и др.
Производством ситкома «ЧОП» занималась кинокомпания «А+ Продакшн».
Цитата: «О таком смешном и народном сериале нельзя не рассказать всем. Тем более что его делали люди, которые создали такие хиты, как «Физрук» и «Реальные пацаны». Во-первых, в трудный период для экономики, маркетинг надо только наращивать, а во-вторых, премьера нового комедийного сериала «ЧОП» на ТНТ – это более чем достойное событие для продвижения», – рассказал директор по маркетингу и PR канала ТНТ Гавриил Гордеев.

Качество: WEB-DLRip
Формат: AVI
Видео кодек: XviD
Аудио кодек: MP3
Видео: XviD, ~ 1800 Кбит/с, 704x400, 25 кадр/с
Аудио: MP3, 2 ch, 128 Кбит/с

АКТЕРСКИЙ СОСТАВ,ФОТО И ИНФОРМАЦИЯ

"АКТЕРСКИЙ СОСТАВ,ФОТО И ИНФОРМАЦИЯ" ( КЛАЦ !)

MI

Формат : AVI
Формат/Информация : Audio Video Interleave
Размер файла : 350 Мбайт
Продолжительность : 25 м.
Общий поток : 1936 Кбит/сек
Программа кодирования : VirtualDubMod 1.5.10.3 | www.virtualdub-fr.org || (build 2550/release)
Библиотека кодирования : VirtualDubMod build 2550/release
Видео
Идентификатор : 0
Формат : MPEG-4 Visual
Профиль формата : Advanced [email protected]
Параметр BVOP формата : 1
Параметр QPel формата : Нет
Параметр GMC формата : Без точки перехода
Параметр матрицы формата : Выборочная
Идентификатор кодека : XVID
Идентификатор кодека/Подсказка : XviD
Продолжительность : 25 м.
Битрейт : 1798 Кбит/сек
Ширина : 704 пикселя
Высота : 400 пикселей
Соотношение сторон : 16:9
Частота кадров : 25,000 кадров/сек
Цветовое пространство : YUV
Субдискретизация насыщенности : 4:2:0
Битовая глубина : 8 бит
Тип развёртки : Прогрессивная
Метод сжатия : С потерями
Бит/(Пиксели*Кадры) : 0.255
Размер потока : 325 Мбайт (93%)
Библиотека кодирования : XviD 73
Аудио
Идентификатор : 1
Формат : MPEG Audio
Версия формата : Version 1
Профиль формата : Layer 3
Идентификатор кодека : 55
Идентификатор кодека/Подсказка : MP3
Продолжительность : 25 м.
Вид битрейта : Постоянный
Битрейт : 128 Кбит/сек
Каналы : 2 канала
Частота : 48,0 КГц
Метод сжатия : С потерями
Размер потока : 23,2 Мбайт (7%)
Выравнивание : Соединение по промежуткам
Продолжительность промежутка : 40 мс. (1,00 видеокадр)
Время предзагрузки промежутка : 504 мс.
Библиотека кодирования : LAME3.99r
Настройки программы : -m s -V 4 -q 0 -lowpass 17 -b 128


Последний раз редактировалось: amadeus1975 (2015-05-01 10:14), всего редактировалось 17 раз(а)
[Профиль]  [ЛС] 

amadeus1975 ®

Стаж: 8 лет 1 месяц

Сообщений: 387

Создавать темы 16-Апр-2015 23:21 (спустя 11 часов)

[Цитировать] 

Добавлена 8 серия.
[Профиль]  [ЛС] 

amadeus1975 ®

Стаж: 8 лет 1 месяц

Сообщений: 387

Создавать темы 23-Апр-2015 00:01 (спустя 6 дней)

[Цитировать] 

Добавлена 11 серия.
[Профиль]  [ЛС] 

amadeus1975 ®

Стаж: 8 лет 1 месяц

Сообщений: 387

Создавать темы 24-Апр-2015 00:28 (спустя 1 день)

[Цитировать] 

Добавлена 12 серия.
[Профиль]  [ЛС] 

amadeus1975 ®

Стаж: 8 лет 1 месяц

Сообщений: 387

Создавать темы 30-Апр-2015 11:15 (спустя 6 дней)

[Цитировать] 

Добавлены серии по 15 включительно.
[Профиль]  [ЛС] 

amadeus1975 ®

Стаж: 8 лет 1 месяц

Сообщений: 387

Создавать темы 01-Май-2015 10:01 (спустя 22 часа)

[Цитировать] 

Добавлена 16 - заключительная серия 1 сезона
[Профиль]  [ЛС] 

hardius

Стаж: 6 лет 2 месяца

Сообщений: 528

Создавать темы 01-Май-2015 20:45 (спустя 10 часов)

[Цитировать] 

Ну вот бред бредом же) Но всё же посмотрел весь сезон и было достаточно моментов с которых пробило на дикое ха-ха Image011
Спасибо за раздачу.
[Профиль]  [ЛС] 

amadeus1975 ®

Стаж: 8 лет 1 месяц

Сообщений: 387

Создавать темы 01-Май-2015 21:11 (спустя 25 минут)

[Цитировать] 

На доброе здоровье! ) Image020
[Профиль]  [ЛС] 
Показать сообщения:    
Ответить на тему

Текущее время: 04-Дек 21:20

Часовой пояс: UTC + 3



Вы не можете начинать темы
Вы не можете отвечать на сообщения
Вы не можете редактировать свои сообщения
Вы не можете удалять свои сообщения
Вы не можете голосовать в опросах
Вы не можете прикреплять файлы к сообщениям
Вы не можете скачивать файлы