Рим / Rome (1-2 сезон: 1-22 серии из 22) (Майкл Эптид, Аллен Коултер,..) [2005-2007 г., Исторический, драма, военный, боевик BDRip 720p] MVO,DVO

Ответить на тему
Статистика раздачи [Обновить пиров]
Скачал: [ 1 ]
 
   
 
 
Автор
Сообщение

mihis ®

Стаж: 2 года 1 месяц

Сообщений: 221

Создавать темы 22-Апр-2015 13:06

[Цитировать] 

Рим / Rome1-2 сезон: 22 серии Год выпуска: 2005-2007
Страна: Великобритания, США | HBO / BBC / RAI
Жанр: Исторический, драма, военный, боевик
Продолжительность: 22 x ~ 00:53:00
Перевод:
Профессиональный (двухголосый, закадровый) LostFilm
Профессиональный (многоголосый, закадровый) ТРК «Петербург - 5-й канал
Профессиональный (многоголосый, закадровый) НТВ
Профессиональный (многоголосый, закадровый) Украинский 1+1
Оригинал
Субтитры: Русские, английские
Режиссер: Майкл Эптид, Аллен Коултер, Алан Пол, Стив Шилл, Тимоти Ван Паттен, Алан Тейлор, Джон Мэйбери
В ролях: Кевин МакКидд, Рэй Стивенсон, Полли Уокер, Керри Кондон, Киаран Хайндс, Джеймс Пьюрфой, Йен МакНайс, Линдси Дункан, Лидия Бионди, Тобиаш Мензес, Дэвид Бамбер, Макс Пиркис, Ли Бордман
Описание: Сериал начинается в 52 году до н. э., когда Гай Юлий Цезарь завоевывает Галлию после восьмилетней войны и готовится возвращаться в Рим. Племянница Цезаря Атия с тревогой ждет его возвращения, патриции в отчаянии — они боятся, что возвращение Цезаря нарушит сложившийся статус-кво, что благополучие, которое они построили за счет плебса, будет подорвано.
В сенате лидеры партии патрициев убеждают старого друга Цезаря, Помпея Великого, что Цезарь стал угрозой для процветания Рима. В это время два незадачливых легионера, Люций Варен и Тит Пуло, затевают авантюру, которая, в случае успеха, значительно повысит их благосостояние. Чем ближе легионы Цезаря продвигаются к Риму, тем больше растет напряжение между солдатами и мирными жителями, тем ближе к развязке конфликт, который навсегда изменит историю…

Качество: BDRip 720p
Формат: MKV
Видео кодек: AVC
Аудио кодек: AC3, MP3
Видео: AVC, 1280x720 (16:9), 5500 kbps, 23,976 fps, 0,249 bpp
Аудио #1: 48 kHz, AC3 6 канала(ов), ~448.00 kbps avg DVO LostFilm
Аудио #2: 48 kHz, AC3 2 канала(ов), ~192.00 kbps avg MVO ТРК «Петербург - 5-й канал
Аудио #3: 48 kHz, AC3 2 канала(ов), ~192.00 kbps avg MVO НТВ
Аудио #4: 48 kHz, MP3 2 канала(ов), ~128.00 kbps avg Ukr 1+1
Аудио #5: 48 kHz, AC3 2 канала(ов), ~192.00 kbps avg Eng

Примечание

В переводе 5-го канала есть несколько сокращенных сцен (видимо цензура).
Все что было вырезано или просто не хватало, вклеино из дорожек LostFilm
По большей части вырезанные места содержат только звук, но есть и куски с диалогами.

Название серий

1-й Сезон
01. Украденный орёл / The Stolen Eagle
02. Как Тит Пуллон разрушил республику / How Titus Pullo Brought Down the Republic
03. Сова в терновнике / An Owl in a Thornbush
04. Кража у Сатурна / Stealing from Saturn
05. Таран коснулся стены / The Ram has Touched the Wall
06. Эгерия / Egeria
07. Фарсал / Pharsalus
08. Цезарион Caesarion
09. Утика / Utica
10. Триумф / Triumph
11. Останки / The Spoils
12. Мартовские иды / Kalends of February
2-й Сезон
01. Пасха / Passover
02. Сын Аида / Son of Hades
03. Это были слова Марка Туллия Цицерона / These Being the Words of Marcus Tullius Ciceron
04. Черепаха и заяц / Testudo et Lepus (The Tortoise and the Hare)
05. Герои республики / Heroes of the Republic
06. Филиппы / Philippi
07. Посмертная маска / Death Mask
08. Необходимый вымысел / A Necessary Fiction
09. Не оставить голодного / Deus Impeditio Esuritori Nullus (No God Can Stop a Hungry Man)
10. Что касается твоего отца… / De Patre Vostro (About Your Father)

Награды

Премия Гильдии актеров, 2008 год
Номинации (1):
Лучший каскадерский состав в телевизионном сериале
Золотой глобус, 2006 год
Номинации (2):
Лучшая женская роль на ТВ (драма) (Полли Уокер)
Лучший драматический сериал
Эмми, 2006 год
Номинации (1):
Лучшие вступительные титры

MediaInfo

General
Unique ID : 200758857904085182679813715396555693725 (0x9708BFE609A36C50A8A8324ABCF3DE9D)
Название : F:videoseriesRome.(2005-2007).BDRip.720pRome..1-01. The Stolen Eagle.mkv
Формат : Matroska
Формат version : Version 2
Размер файла : 2.43 GiB
Длительность : 52mn 17s
Общий Битрейт : 6 663 Kbps
Movie name : «Украденный орёл» The Stolen Eagle
Encoded date : UTC 2013-03-12 15:39:13
Создано приложением : mkvmerge v5.8.0 ('No Sleep / Pillow') built on Sep 2 2012 15:37:04
Writing library : libebml v1.2.3 + libmatroska v1.3.0
Cover : Cover
Video
ID : 1
Формат : AVC
Формат/Info : Advanced Video Кодек
Формат profile : [email protected]
Формат настройки, CABAC : Yes
Формат настройки, ReFrames : 9 frames
Кодек ID : V_MPEG4/ISO/AVC
Длительность : 52mn 17s
Битрейт : 5 500 Kbps
Width : 1 280 пикселей
Высота : 720 пикселей
Соотношение кадра : 16:9
Частота кадров : 23.976 fps
Цветопередача : YUV
Chroma subsampling : 4:2:0
Разрядность : 8 bits
Тип сканирования : Progressive
Bits/(Pixel*Frame) : 0.249
Размер потока : 1.96 GiB (81%)
Title : «Украденный орёл» The Stolen Eagle
Writing library : x264 core 79 r1352M d487de4
Encoding настройки : cabac=1 / ref=9 / deblock=1:-3:-3 / analyse=0x3:0x133 / me=umh / subme=9 / psy=1 / psy_rd=1.0:0.0 / mixed_ref=1 / me_range=24 / chroma_me=1 / trellis=2 / 8x8dct=1 / cqm=0 / deadzone=21,11 / chroma_qp_offset=-2 / threads=6 / nr=0 / decimate=0 / mbaff=0 / constrained_intra=0 / bframes=6 / b_pyramid=0 / b_adapt=2 / b_bias=0 / direct=3 / wpredb=1 / wpredp=2 / keyint=250 / keyint_min=25 / scenecut=40 / rc_lookahead=60 / rc=2pass / mbtree=1 / bitrate=5500 / ratetol=1.0 / qcomp=0.80 / qpmin=10 / qpmax=51 / qpstep=4 / cplxblur=20.0 / qblur=0.5 / ip_ratio=1.40 / aq=1:0.75 / pulldown=0 / nal_hrd=0
Язык : English
Default : Yes
Forced : Yes
Audio #1
ID : 2
Формат : AC-3
Формат/Info : Audio Coding 3
Расширение режима : CM (complete main)
Кодек ID : A_AC3
Длительность : 52mn 17s
Битрейт mode : Constant
Битрейт : 448 Kbps
Каналы(s) : 6 каналов
Каналы positions : Front: L C R, Side: L R, LFE
Частота : 48.0 KHz
Разрядность : 16 bits
Режим сжатия : Lossy
Delay relative to video : 506ms
Размер потока : 168 MiB (7%)
Title : Професиональный двухголосый. «LostFilm» Kravec
Язык : Russian
Default : Yes
Forced : No
Audio #2
ID : 3
Формат : AC-3
Формат/Info : Audio Coding 3
Расширение режима : CM (complete main)
Кодек ID : A_AC3
Длительность : 52mn 17s
Битрейт mode : Constant
Битрейт : 192 Kbps
Каналы(s) : 2 канала
Каналы positions : Front: L R
Частота : 48.0 KHz
Разрядность : 16 bits
Режим сжатия : Lossy
Delay relative to video : 608ms
Размер потока : 71.8 MiB (3%)
Title : Професиональный многоголосый. ТРК «Петербург - 5-й канал»
Язык : Russian
Default : No
Forced : No
Audio #3
ID : 4
Формат : AC-3
Формат/Info : Audio Coding 3
Расширение режима : ME (music and effects)
Кодек ID : A_AC3
Длительность : 52mn 17s
Битрейт mode : Constant
Битрейт : 192 Kbps
Каналы(s) : 2 канала
Каналы positions : Front: L R
Частота : 48.0 KHz
Разрядность : 16 bits
Режим сжатия : Lossy
Размер потока : 71.8 MiB (3%)
Title : Професиональный многоголосый. «НТВ»
Язык : Russian
Default : No
Forced : No
Audio #4
ID : 5
Формат : MPEG Audio
Формат version : Version 1
Формат profile : Layer 3
Mode : Joint stereo
Кодек ID : A_MPEG/L3
Кодек ID/Hint : MP3
Длительность : 52mn 17s
Битрейт mode : Constant
Битрейт : 128 Kbps
Каналы(s) : 2 канала
Частота : 48.0 KHz
Режим сжатия : Lossy
Delay relative to video : 16ms
Размер потока : 47.9 MiB (2%)
Title : Професиональный многоголосый. «1+1»
Язык : Ukrainian
Default : No
Forced : No
Audio #5
ID : 6
Формат : AC-3
Формат/Info : Audio Coding 3
Расширение режима : CM (complete main)
Кодек ID : A_AC3
Длительность : 52mn 17s
Битрейт mode : Constant
Битрейт : 192 Kbps
Каналы(s) : 2 канала
Каналы positions : Front: L R
Частота : 48.0 KHz
Разрядность : 16 bits
Режим сжатия : Lossy
Размер потока : 71.8 MiB (3%)
Title : Английский
Язык : English
Default : No
Forced : No
Text #1
ID : 7
Формат : UTF-8
Кодек ID : S_TEXT/UTF8
Кодек ID/Info : UTF-8 Plain Text
Title : Английский
Язык : Russian
Default : Yes
Forced : No
Text #2
ID : 8
Формат : UTF-8
Кодек ID : S_TEXT/UTF8
Кодек ID/Info : UTF-8 Plain Text
Title : Русские
Язык : English
Default : No
Forced : No
Menu
00:00:00.000 : ru:Глава 1-я
00:05:00.000 : ru:Глава 2-я
00:10:00.000 : ru:Глава 3-я
00:15:00.000 : ru:Глава 4-я
00:20:00.000 : ru:Глава 5-я
00:25:00.000 : ru:Глава 6-я
00:30:00.000 : ru:Глава 7-я
00:35:00.000 : ru:Глава 8-я
00:40:00.000 : ru:Глава 9-я


Последний раз редактировалось: mihis (2016-11-29 23:10), всего редактировалось 1 раз
[Профиль]  [ЛС] 

hardius

Стаж: 6 лет 2 месяца

Сообщений: 528

Создавать темы 22-Апр-2015 14:42 (спустя 1 час 36 минут)

[Цитировать] 

Офигенный сериал, смотрел где-то год назад, очень понравился.
[Профиль]  [ЛС] 

F1eanor

Стаж: 7 лет 7 месяцев

Сообщений: 440

Создавать темы 22-Апр-2015 21:29 (спустя 6 часов)

[Цитировать] 

Плюсую, суперский сериал!
[Профиль]  [ЛС] 
Показать сообщения:    
Ответить на тему

Текущее время: 06-Дек 13:12

Часовой пояс: UTC + 3



Вы не можете начинать темы
Вы не можете отвечать на сообщения
Вы не можете редактировать свои сообщения
Вы не можете удалять свои сообщения
Вы не можете голосовать в опросах
Вы не можете прикреплять файлы к сообщениям
Вы не можете скачивать файлы