Расплата (2014) WEB-DLRip [H.264/1080p] (серии 1-4 из 4)

Ответить на тему
Статистика раздачи [Обновить пиров]
Нет
 
   
 
 
Автор
Сообщение

SHAMAN665 ®

Стаж: 7 лет 2 месяца

Сообщений: 627

Откуда: мой адрес не дом и не улица ...

Создавать темы 26-Апр-2015 16:45

[Цитировать] 

-Расплата (2014) WEB-DLRip [H.264/1080p] (серии 1-4 из 4)- Производство: "Berg Sound", Россия
Жанр: психологический триллер
Режиссер: Роман Мушигян
Актеры: Анатолий Смиранин, Евгения Серебренникова, Армен Джигарханян, Станислав Эрклиевский, Вячеслав Кулаков, Константин Тополага, Петар Зекавица, Александр Рапопорт, Сергей Комаров, Андрей Лавров, Иван Ивашкин, Арнис Лицитис, Татьяна Лянник, Сос Джанибекян, Павел Кузьмин, Сергей Даниелян
Описание:
Молодой оперативник, Алексей Борисов, в составе оперативной группы расследует странное убийство. Сразу же, с начала расследования на Алексея сваливаются странные, а, главное, совершенно загадочные факты и обстоятельства, связывающие его с жертвой и с некоторыми другими людьми, которых он не знает. Пытаясь разобраться в происходящем, Алексей понимает, что не помнит ничего, что было больше чем полгода тому назад. Молодая врач-психиатр Катя берется помочь Алексею, и они вдвоем пытаются разобраться, кем был Алексей в прошлом, откуда он, чем занимался. К великому удивлению Алексея за ним начинают охотиться какие-то загадочные люди...
Дата российской премьеры: 12.11.2014
Продолжительность: ~ 00:50:00 серия
Качество видео: WEB-DLRip
Видеокодек: AVC/H.264
Битрейт видео: ~4000 Kbps
Размер кадра: 1912x808
Аудиокодек: AC3
Битрейт аудио: 2 ch, 192 Kbps-

MediaInfo:

Общее
Уникальный идентификатор                 : 201552423192744301223388783928485088497 (0x97A195B026294B029A2AC48B89F80CF1)
Полное имя                               : E:\DOWNLOADS\Расплата (2014) WEB-DLRip 1080\Расплата - 01 серия.mkv
Формат                                   : Matroska
Версия формата                           : Version 2
Размер файла                             : 1,49 Гбайт
Продолжительность                        : 50 м.
Режим общего битрейта                    : Переменный
Общий поток                              : 4197 Кбит/сек
Дата кодирования                         : UTC 2015-04-26 09:10:03
Программа кодирования                    : mkvmerge v6.1.0 ('Old Devil') built on Mar  4 2013 09:10:42
Библиотека кодирования                   : libebml v1.3.0 + libmatroska v1.4.0
Видео
Идентификатор                            : 1
Формат                                   : AVC
Формат/Информация                        : Advanced Video Codec
Профиль формата                          : [email protected]
Параметр CABAC формата                   : Да
Параметр ReFrames формата                : 3 кадра
Идентификатор кодека                     : V_MPEG4/ISO/AVC
Продолжительность                        : 50 м.
Вид битрейта                             : Переменный
Битрейт                                  : 4000 Кбит/сек
Максимальный битрейт                     : 40,0 Мбит/сек
Ширина                                   : 1912 пикселей
Высота                                   : 808 пикселей
Соотношение сторон                       : 2,35:1
Режим частоты кадров                     : Постоянный
Частота кадров                           : 25,000 кадров/сек
Цветовое пространство                    : YUV
Субдискретизация насыщенности            : 4:2:0
Битовая глубина                          : 8 бит
Тип развёртки                            : Прогрессивная
Бит/(Пиксели*Кадры)                      : 0.104
Размер потока                            : 1,39 Гбайт (93%)
Библиотека кодирования                   : x264 core 142 r2389 956c8d8
Настройки программы                      : cabac=1 / ref=3 / deblock=1:0:0 / analyse=0x3:0x133 / me=umh / subme=7 / psy=1 / psy_rd=1.00:0.00 / mixed_ref=1 / me_range=32 / chroma_me=1 / trellis=2 / 8x8dct=1 / cqm=0 / deadzone=21,11 / fast_pskip=1 / chroma_qp_offset=-2 / threads=12 / lookahead_threads=2 / sliced_threads=0 / nr=0 / decimate=1 / interlaced=0 / bluray_compat=0 / constrained_intra=0 / bframes=0 / weightp=0 / keyint=75 / keyint_min=26 / scenecut=40 / intra_refresh=0 / rc_lookahead=50 / rc=2pass / mbtree=0 / bitrate=4000 / ratetol=1.0 / qcomp=0.20 / qpmin=10 / qpmax=51 / qpstep=4 / cplxblur=20.0 / qblur=0.5 / vbv_maxrate=5000 / vbv_bufsize=5000 / nal_hrd=none / filler=0 / ip_ratio=1.40 / aq=1:1.0
Default                                  : Да
Forced                                   : Нет
Основные цвета                           : BT.709
Характеристики трансфера                 : BT.709
Коэффициенты матрицы                     : BT.709
colour_range                             : Limited
Аудио
Идентификатор                            : 2
Формат                                   : AC-3
Формат/Информация                        : Audio Coding 3
Расширение режима                        : CM (complete main)
Параметр Endianness формата              : Big
Идентификатор кодека                     : A_AC3
Продолжительность                        : 50 м.
Вид битрейта                             : Постоянный
Битрейт                                  : 192 Кбит/сек
Каналы                                   : 2 канала
Расположение каналов                     : Front: L R
Частота                                  : 44,1 КГц
Битовая глубина                          : 16 бит
Метод сжатия                             : С потерями
Размер потока                            : 69,8 Мбайт (5%)
Default                                  : Да
Forced                                   : Нет
--!!! ЗАЛИТО НА ЗАКАЗ !!!
оставайтесь на раздаче
-
[Профиль]  [ЛС] 
Показать сообщения:    
Ответить на тему

Текущее время: 11-Дек 07:05

Часовой пояс: UTC + 3



Вы не можете начинать темы
Вы не можете отвечать на сообщения
Вы не можете редактировать свои сообщения
Вы не можете удалять свои сообщения
Вы не можете голосовать в опросах
Вы не можете прикреплять файлы к сообщениям
Вы не можете скачивать файлы