Истребители: Последний бой (2 сезон: 1-12 серии из 12) (Зиновий Ройзман) [2015 г., Военный фильм, драма, WEB-DLRip]

Ответить на тему
Статистика раздачи [Обновить пиров]
Скачал: [ 1 ]
 
   
 
 
Автор
Сообщение

mihis ®

Стаж: 2 года 1 месяц

Сообщений: 221

Создавать темы 04-Май-2015 17:14

[Цитировать] 

Истребители: Последний бой2 сезон: 12 серииГод выпуска: 2015
Страна: Россия, "Star Media"
Жанр: Военный фильм, драма
Продолжительность: 12 x ~ 00:52:00
Перевод: Не требуется
Режиссер: Зиновий Ройзман
В ролях: Дмитрий Дюжев, Дмитрий Арбенин, Мария Андреева, Денис Константинов, Валентин Касьян, Алексей Демидов, Антон Сёмкин, Альберт Аванесян, Олеся Судзиловская, Валерия Ланская, Олег Никитин (II), Сергей Шаталов, Анастасия Веденская, Светлана Столярова, Ольга Филиппова, Сергей Лобанов (II), Дарья Белоусова (II), Павел Конек, Юрий Маслак, Мария Хижняк, Илья Рубанов, Анастасия Макеева, Алексей Овсянников, Анастасия Сорокина, Елена Махова, Игорь Литовкин (II)
Описание: Продолжение грандиозной военной драмы "Истребители" о подвиге летчиков военной авиации времен Великой Отечественной войны, о дружбе, скрепленной кровью, мужестве и настоящей любви. В центре повествования - смешанный летный полк, в котором служат не только мужчины, но и отважные летчики-женщины. Летчика Илью Бестужева вызывают в главный штаб, где повышают в звании до подполковника и приказывают сформировать собственный полк на базе новейших истребителей ЯК-3. Он отправляется в Москву и встречается со своим бывшим ведомым, ныне героем Советского Союза – летчиком Леонидом Шугаевым. Леонид знакомит его со своей девушкой – певицей Аллой Лазуркевич и ее подругой – примой Большого театра Лидой Серебрянской. Лида с первого взгляда влюбляется в Бестужева, но он не может ответить на ее чувства. Ведь он верит, что однажды сможет разыскать свою давнюю любовь – летчицу Евгению Дементьеву, с которой потерял связь на фронте. Бестужев отправляется на передовую и после обустройства на новом месте принимает пополнение – пять девушек. Между тем в воздухе идут тяжелые бои, советские летчики никак не могут преодолеть загадочную немецкую оборону, которая мешает продвижению нашей армии. Бестужеву предстоит сложнейшая задача – любой ценой разгадать секретный план немцев под названием "Восточная шкатулка"...

Качество: WEB-DLRip
Формат: AVI
Видео кодек: XviD
Аудио кодек: AC3
Видео: 720x400 (1.80:1), 25 fps, XviD build 50 ~1599 kbps avg, 0.22 bit/pixel
Аудио: 44.100 kHz, AC3 Dolby Digital, 2/0 (L,R) ch, ~128.00 kbps avg

MediaInfo

Общее
Полное имя : E:\Video\Istrebiteli.Poslednij.boj.WEBDLRip\Istrebiteli.Poslednij.boj.01.WEBDLRip.avi
Формат : AVI
Формат/Информация : Audio Video Interleave
Размер файла : 650 Мбайт
Продолжительность : 52 м.
Общий поток : 1738 Кбит/сек
Программа кодирования : VirtualDubMod 1.5.10.3 | www.virtualdub-fr.org || (build 2550/release)
Библиотека кодирования : VirtualDubMod build 2550/release
Видео
Идентификатор : 0
Формат : MPEG-4 Visual
Профиль формата : Advanced [email protected]
Параметр BVOP формата : 2
Параметр QPel формата : Нет
Параметр GMC формата : Без точки перехода
Параметр матрицы формата : Default (MPEG)
Идентификатор кодека : XVID
Идентификатор кодека/Подсказка : XviD
Продолжительность : 52 м.
Битрейт : 1600 Кбит/сек
Ширина : 720 пикселей
Высота : 400 пикселей
Соотношение сторон : 16:9
Частота кадров : 25,000 кадров/сек
Цветовое пространство : YUV
Субдискретизация насыщенности : 4:2:0
Битовая глубина : 8 бит
Тип развёртки : Прогрессивная
Метод сжатия : С потерями
Бит/(Пиксели*Кадры) : 0.222
Размер потока : 598 Мбайт (92%)
Библиотека кодирования : XviD 1.2.1 (UTC 2008-12-04)
Аудио
Идентификатор : 1
Формат : AC-3
Формат/Информация : Audio Coding 3
Расширение режима : CM (complete main)
Параметр Endianness формата : Big
Идентификатор кодека : 2000
Продолжительность : 52 м.
Вид битрейта : Постоянный
Битрейт : 128 Кбит/сек
Каналы : 2 канала
Расположение каналов : Front: L R
Частота : 44,1 КГц
Битовая глубина : 16 бит
Метод сжатия : С потерями
Размер потока : 47,9 Мбайт (7%)
Выравнивание : Разделение по промежуткам
Продолжительность промежутка : 40 мс. (1,00 видеокадр)
Время предзагрузки промежутка : 500 мс.


Последний раз редактировалось: mihis (2015-05-08 20:40), всего редактировалось 3 раз(а)
[Профиль]  [ЛС] 

mihis ®

Стаж: 2 года 1 месяц

Сообщений: 221

Создавать темы 05-Май-2015 17:01 (спустя 23 часа)

[Цитировать] 

добавлены 4-6 серии
[Профиль]  [ЛС] 

mihis ®

Стаж: 2 года 1 месяц

Сообщений: 221

Создавать темы 06-Май-2015 22:49 (спустя 1 день 5 часов)

[Цитировать] 

добавлены 7-8 серии
[Профиль]  [ЛС] 

mihis ®

Стаж: 2 года 1 месяц

Сообщений: 221

Создавать темы 07-Май-2015 17:02 (спустя 18 часов)

[Цитировать] 

добавлены 9-10 серии
[Профиль]  [ЛС] 

mihis ®

Стаж: 2 года 1 месяц

Сообщений: 221

Создавать темы 08-Май-2015 20:40 (спустя 1 день 3 часа)

[Цитировать] 

добавлены 11-12 серии Финал
[Профиль]  [ЛС] 
Похожие темы
Форум Тема Автор Размер
Отечественные сериалы Истребители (1-2 сезон: 24 серий из 24) (Алексей Мурадов) [2013-2015 г., Военный фильм, драма, WEB-DLRip-AVC] mihis 18,75 GB
Отечественные сериалы Истребители - 2. Последний бой (2 сезон: 1-12 серия из 12) ( Зиновий Ройзман) [2015, Драма, военный, WEB-DL (1080p)] Serega624 14,55 GB
HD Трансформеры: Эпоха истребления / Transformers: Age of Extinction (2014) BDRip 1080p | Чистый звук Lost_Mind 11,37 GB
Зарубежное кино Трансформеры: Эпоха истребления / Transformers: Age Of Extinction (Майкл Бэй) [2014, США, Китай, Фантастика, боевик, приключения, BDRip | Звук с TS] ЗвЕрЁк 2,6 GB
Зарубежное кино Трансформеры: Эпоха истребления / Transformers: Age Of Extinction (Майкл Бэй) [2014, США, Китай, Фантастика, боевик, приключения, TS] Олег_SevStar 2,9 GB
3D/Stereo фильмы Трансформеры: Эпоха истребления в 3Д / Transformers: Age of Extinction 3D (Майкл Бэй / Michael Bay) [2014, Фантастика, боевик, приключения, BDrip, 1080p] OverUnder / Вертикальная стереопара bot 31,08 GB
Показать сообщения:    
Ответить на тему

Текущее время: 08-Дек 07:00

Часовой пояс: UTC + 3



Вы не можете начинать темы
Вы не можете отвечать на сообщения
Вы не можете редактировать свои сообщения
Вы не можете удалять свои сообщения
Вы не можете голосовать в опросах
Вы не можете прикреплять файлы к сообщениям
Вы не можете скачивать файлы