Храброе сердце / Braveheart (Мэл Гибсон) [1995 г., Боевик, драма, военный, биография, история, BDRip 720p] Dub, MVO, DVO, AVO

Ответить на тему
Статистика раздачи [Обновить пиров]
Качаю: [ 1 ]
Скачал: [ 2 ]
 
   
 
 
Автор
Сообщение

mihis ®

Стаж: 2 года 1 месяц

Сообщений: 221

Создавать темы 27-Май-2015 15:20

[Цитировать] 

Храброе сердце / Braveheart«Все умирают, но не все живут по-настоящему»Год выпуска: 1995
Страна: США, B.H. Finance C.V., Icon Entertainmnet International, The Ladd Company
Жанр: Боевик, драма, военный, биография, история
Продолжительность: 02:57:43
Перевод:
Профессиональный (полное, дублирование) Blu-ray CEE
Профессиональный (многоголосый, закадровый) Киномания, ОРТ
Профессиональный (двухголосый, закадровый) П.Гланц и И.Королева, Премьер Видео
Авторский (одноголосый, закадровый) А.Гаврилов, А.Кашкин, С.Визгунов ранний, поздний
Профессиональный (многоголосый, закадровый) Украинский 1+1
Оригинал
Субтитры: Русские, английские
Режиссер: Мэл Гибсон
В ролях: Мэл Гибсон, Софи Марсо, Патрик МакГуэн, Энгус Макфадьен, Брендан Глисон, Катрин МакКормак, Брайан Кокс, Джерард МакСорли, Мартин Мерфи, Томми Флэнаган, Джон Мурта, Джеймс Робинсон, Шон Лоулор, Сэнди Нельсон, Джеймс Космо, Шон МакГинли, Алан Толл, Эндрю Вейр, Герда Стивенсон, Ральф Райч, Мхэйри Калви, Питер Хэнли, Стивен Биллингтон, Бэрри МакГоверн, Джон Кэвэна, Алан Армстронг, Джули Остин
Описание: Действие фильма начинается в 1280 году в Шотландии. Это история легендарного национального героя Уильяма Уолласа, посвятившего себя борьбе с англичанами при короле Эдварде Длинноногом.
Он рано лишился отца, погибшего от рук англичан, и его забрал к себе дядя Оргайл, который дал ему хорошее образование в Европе. На родину Уильям возвращается уже взрослым человеком, мечтающем завести семью и жить мирной жизнью.
Но судьба распорядилась иначе. Его невесту убили англичане, и он начал свой крестовый поход за свободу.

Качество: BDRip 720p
Формат: MKV
Видео кодек: H264
Аудио кодек: AC3, DTS
Видео: AVC, 1280x544 (2.35:1), [email protected], 7 800 Kbps (0.467 bit/pixel)
Аудио #1: 48 kHz, DTS, 6 канала(ов), ~768 kbps avg Dub Blu-ray CEE
Аудио #2: 48 kHz, AC3, 6 канала(ов), ~448 kbps avg MVO Киномания
Аудио #3: 48 kHz, AC3, 6 канала(ов), ~448 kbps avg DVO П.Гланц и И.Королева
Аудио #4: 48 kHz, AC3, 2 канала(ов), ~320 kbps avg DVO Премьер Видео
Аудио #5: 48 kHz, AC3, 6 канала(ов), ~384 kbps avg MVO
Аудио #6: 48 kHz, AC3, 2 канала(ов), ~224 kbps avg MVO ОРТ
Аудио #7: 48 kHz, DTS, 6 канала(ов), ~1510 kbps avg AVO А.Гаврилов
Аудио #8: 48 kHz, AC3, 2 канала(ов), ~224 kbps avg AVO А.Кашкин
Аудио #9: 48 kHz, AC3, 2 канала(ов), ~192 kbps avg AVO С.Визгунов ранний
Аудио #10: 48 kHz, AC3, 2 канала(ов), ~192 kbps avg AVO С.Визгунов поздний
Аудио #11: 48 kHz, AC3, 2 канала(ов), ~256 kbps avg MVO Ukr 1+1
Аудио #12: 48 kHz, DTS, 6 канала(ов), ~1510 kbps avg Eng
Аудио #13: 48 kHz, Vorbis, 2 канала(ов), ~224 kbps avg Eng Commentary by Mel Gibson

MediaInfo

Общее
Уникальный идентификатор : 223831840380423027225049240044647309736 (0xA86471C3843DD5B0A5DA8B694AB161A8)
Полное имя : E:\Video\Braveheart.1995.BDRip.720p.10xRus.Ukr.2xEng.Sub.(Release for MediaClub by V1adboyko!).mkv
Формат : Matroska
Версия формата : Version 4 / Version 2
Размер файла : 17,8 Гбайт
Продолжительность : 2 ч. 57 м.
Режим общего битрейта : Переменный
Общий поток : 14,4 Мбит/сек
Дата кодирования : UTC 2014-03-24 16:29:24
Программа кодирования : mkvmerge v6.2.0 ('Promised Land') built on Apr 28 2013 12:22:01
Библиотека кодирования : libebml v1.3.0 + libmatroska v1.4.0
Attachment : Yes / Yes / Yes
Видео
Идентификатор : 1
Формат : AVC
Формат/Информация : Advanced Video Codec
Профиль формата : [email protected]
Параметр CABAC формата : Да
Параметр ReFrames формата : 11 кадров
Идентификатор кодека : V_MPEG4/ISO/AVC
Продолжительность : 2 ч. 57 м.
Битрейт : 7800 Кбит/сек
Ширина : 1280 пикселей
Высота : 544 пикселя
Соотношение сторон : 2,35:1
Режим частоты кадров : Постоянный
Частота кадров : 23,976 кадра/сек
Цветовое пространство : YUV
Субдискретизация насыщенности : 4:2:0
Битовая глубина : 8 бит
Тип развёртки : Прогрессивная
Бит/(Пиксели*Кадры) : 0.467
Размер потока : 9,33 Гбайт (52%)
Заголовок : Release for MediaClub by V1adboyko!
Библиотека кодирования : x264 core 68 r1183M f21daff
Настройки программы : cabac=1 / ref=11 / deblock=1:-3:-3 / analyse=0x3:0x113 / me=umh / subme=9 / psy_rd=1.0:0.0 / mixed_ref=1 / me_range=64 / chroma_me=1 / trellis=2 / 8x8dct=1 / cqm=0 / deadzone=21,11 / chroma_qp_offset=-2 / threads=6 / nr=0 / decimate=1 / mbaff=0 / bframes=8 / b_pyramid=1 / b_adapt=2 / b_bias=0 / direct=3 / wpredb=1 / keyint=250 / keyint_min=25 / scenecut=40 / rc=2pass / bitrate=7800 / ratetol=1.0 / qcomp=0.60 / qpmin=10 / qpmax=51 / qpstep=4 / cplxblur=20.0 / qblur=0.5 / vbv_maxrate=50000 / vbv_bufsize=50000 / ip_ratio=1.40 / pb_ratio=1.30 / aq=1:0.70
Язык : English
Default : Нет
Forced : Нет
Аудио #1
Идентификатор : 2
Формат : DTS
Формат/Информация : Digital Theater Systems
Режим : 16
Параметр Endianness формата : Big
Идентификатор кодека : A_DTS
Продолжительность : 2 ч. 57 м.
Вид битрейта : Постоянный
Битрейт : 768 Кбит/сек
Каналы : 6 каналов
Расположение каналов : Front: L C R, Side: L R, LFE
Частота : 48,0 КГц
Битовая глубина : 24 бит
Метод сжатия : С потерями
Размер потока : 976 Мбайт (5%)
Заголовок : 1) DTS; 6 ch; 48 kHz; 768 kbps - [Дубляж, Blu-ray CEE]
Язык : Russian
Default : Да
Forced : Нет
Аудио #2
Идентификатор : 3
Формат : AC-3
Формат/Информация : Audio Coding 3
Расширение режима : CM (complete main)
Параметр Endianness формата : Big
Идентификатор кодека : A_AC3
Продолжительность : 2 ч. 57 м.
Вид битрейта : Постоянный
Битрейт : 448 Кбит/сек
Каналы : 6 каналов
Расположение каналов : Front: L C R, Side: L R, LFE
Частота : 48,0 КГц
Битовая глубина : 16 бит
Метод сжатия : С потерями
Размер потока : 570 Мбайт (3%)
Заголовок : 2) AC3; 6 ch; 48 kHz; 448 kbps - [Многоголосый закадровый, Киномания]
Язык : Russian
Default : Нет
Forced : Нет
Аудио #3
Идентификатор : 4
Формат : AC-3
Формат/Информация : Audio Coding 3
Расширение режима : CM (complete main)
Параметр Endianness формата : Big
Идентификатор кодека : A_AC3
Продолжительность : 2 ч. 57 м.
Вид битрейта : Постоянный
Битрейт : 448 Кбит/сек
Каналы : 6 каналов
Расположение каналов : Front: L C R, Side: L R, LFE
Частота : 48,0 КГц
Битовая глубина : 16 бит
Метод сжатия : С потерями
Размер потока : 570 Мбайт (3%)
Заголовок : 3) AC3; 6 ch; 48 kHz; 448 kbps - [Двухголосый закадровый, П.Гланц и И.Королева]
Язык : Russian
Default : Нет
Forced : Нет
Аудио #4
Идентификатор : 5
Формат : AC-3
Формат/Информация : Audio Coding 3
Расширение режима : CM (complete main)
Параметр Endianness формата : Big
Идентификатор кодека : A_AC3
Продолжительность : 2 ч. 57 м.
Вид битрейта : Постоянный
Битрейт : 320 Кбит/сек
Каналы : 2 канала
Расположение каналов : Front: L R
Частота : 48,0 КГц
Битовая глубина : 16 бит
Метод сжатия : С потерями
Размер потока : 407 Мбайт (2%)
Заголовок : 4) AC3; 2 ch; 48 kHz; 320 kbps - [Двухголосый закадровый, Премьер Видео Фильм]
Язык : Russian
Default : Нет
Forced : Нет
Аудио #5
Идентификатор : 6
Формат : AC-3
Формат/Информация : Audio Coding 3
Расширение режима : CM (complete main)
Параметр Endianness формата : Big
Идентификатор кодека : A_AC3
Продолжительность : 2 ч. 57 м.
Вид битрейта : Постоянный
Битрейт : 384 Кбит/сек
Каналы : 6 каналов
Расположение каналов : Front: L C R, Side: L R, LFE
Частота : 48,0 КГц
Битовая глубина : 16 бит
Метод сжатия : С потерями
Размер потока : 488 Мбайт (3%)
Заголовок : 5) AC3; 6 ch; 48 kHz; 384 kbps - [Многоголосый закадровый, N/а]
Язык : Russian
Default : Нет
Forced : Нет
Аудио #6
Идентификатор : 7
Формат : AC-3
Формат/Информация : Audio Coding 3
Расширение режима : CM (complete main)
Параметр Endianness формата : Big
Идентификатор кодека : A_AC3
Продолжительность : 2 ч. 57 м.
Вид битрейта : Постоянный
Битрейт : 224 Кбит/сек
Каналы : 2 канала
Расположение каналов : Front: L R
Частота : 48,0 КГц
Битовая глубина : 16 бит
Метод сжатия : С потерями
Размер потока : 285 Мбайт (2%)
Заголовок : 6) AC3; 2 ch; 48 kHz; 224 kbps - [Многоголосый закадровый, Орт]
Язык : Russian
Default : Нет
Forced : Нет
Аудио #7
Идентификатор : 8
Формат : DTS
Формат/Информация : Digital Theater Systems
Режим : 16
Параметр Endianness формата : Big
Идентификатор кодека : A_DTS
Продолжительность : 2 ч. 57 м.
Вид битрейта : Постоянный
Битрейт : 1510 Кбит/сек
Каналы : 6 каналов
Расположение каналов : Front: L C R, Side: L R, LFE
Частота : 48,0 КГц
Битовая глубина : 24 бит
Метод сжатия : С потерями
Размер потока : 1,87 Гбайт (11%)
Заголовок : 7) DTS; 6 ch; 48 kHz; 1510 kbps - [Одноголосый закадровый, А.Гаврилов]
Язык : Russian
Default : Нет
Forced : Нет
Аудио #8
Идентификатор : 9
Формат : AC-3
Формат/Информация : Audio Coding 3
Расширение режима : CM (complete main)
Параметр Endianness формата : Big
Идентификатор кодека : A_AC3
Продолжительность : 2 ч. 57 м.
Вид битрейта : Постоянный
Битрейт : 224 Кбит/сек
Каналы : 2 канала
Расположение каналов : Front: L R
Частота : 48,0 КГц
Битовая глубина : 16 бит
Метод сжатия : С потерями
Размер потока : 285 Мбайт (2%)
Заголовок : Cool AC3; 2 ch; 48 kHz; 224 kbps - [Одноголосый закадровый, И.Кашкин]
Язык : Russian
Default : Нет
Forced : Нет
Аудио #9
Идентификатор : 10
Формат : AC-3
Формат/Информация : Audio Coding 3
Расширение режима : CM (complete main)
Параметр Endianness формата : Big
Идентификатор кодека : A_AC3
Продолжительность : 2 ч. 57 м.
Вид битрейта : Постоянный
Битрейт : 192 Кбит/сек
Каналы : 2 канала
Расположение каналов : Front: L R
Частота : 48,0 КГц
Битовая глубина : 16 бит
Метод сжатия : С потерями
Размер потока : 244 Мбайт (1%)
Заголовок : 9) AC3; 2 ch; 48 kHz; 192 kbps - [Одноголосый закадровый, С.Визгунов (ранний)]
Язык : Russian
Default : Нет
Forced : Нет
Аудио #10
Идентификатор : 11
Формат : AC-3
Формат/Информация : Audio Coding 3
Расширение режима : CM (complete main)
Параметр Endianness формата : Big
Идентификатор кодека : A_AC3
Продолжительность : 2 ч. 57 м.
Вид битрейта : Постоянный
Битрейт : 192 Кбит/сек
Каналы : 2 канала
Расположение каналов : Front: L R
Частота : 48,0 КГц
Битовая глубина : 16 бит
Метод сжатия : С потерями
Размер потока : 244 Мбайт (1%)
Заголовок : 10) AC3; 2 ch; 48 kHz; 192 kbps - [Одноголосый закадровый, С.Визгунов (поздний)]
Язык : Russian
Default : Нет
Forced : Нет
Аудио #11
Идентификатор : 12
Формат : AC-3
Формат/Информация : Audio Coding 3
Расширение режима : CM (complete main)
Параметр Endianness формата : Big
Идентификатор кодека : A_AC3
Продолжительность : 2 ч. 57 м.
Вид битрейта : Постоянный
Битрейт : 256 Кбит/сек
Каналы : 2 канала
Расположение каналов : Front: L R
Частота : 48,0 КГц
Битовая глубина : 16 бит
Метод сжатия : С потерями
Размер потока : 325 Мбайт (2%)
Заголовок : 11) AC3; 2 ch; 48 kHz; 256 kbps - [Многоголосый закадровый, 1+1]
Язык : Ukrainian
Default : Нет
Forced : Нет
Аудио #12
Идентификатор : 13
Формат : DTS
Формат/Информация : Digital Theater Systems
Режим : 16
Параметр Endianness формата : Big
Идентификатор кодека : A_DTS
Продолжительность : 2 ч. 57 м.
Вид битрейта : Постоянный
Битрейт : 1510 Кбит/сек
Каналы : 6 каналов
Расположение каналов : Front: L C R, Side: L R, LFE
Частота : 48,0 КГц
Битовая глубина : 24 бит
Метод сжатия : С потерями
Размер потока : 1,87 Гбайт (11%)
Заголовок : 12) DTS; 6 ch; 48 kHz; 1510 kbps - [Original]
Язык : English
Default : Нет
Forced : Нет
Аудио #13
Идентификатор : 14
Формат : Vorbis
Параметр Floor формата : 1
Идентификатор кодека : A_VORBIS
Продолжительность : 2 ч. 57 м.
Вид битрейта : Переменный
Битрейт : 76,8 Кбит/сек
Каналы : 2 канала
Частота : 48,0 КГц
Метод сжатия : С потерями
Размер потока : 97,6 Мбайт (1%)
Заголовок : 13) Vorbis; 2 ch; 48 kHz; 224 kbps - [Commentary by Mel Gibson]
Библиотека кодирования : libVorbis 1.0 (UTC 2002-07-17)
Язык : English
Default : Нет
Forced : Нет
Текст #1
Идентификатор : 15
Формат : UTF-8
Идентификатор кодека : S_TEXT/UTF8
Идентификатор кодека/Информация : UTF-8 Plain Text
Язык : Russian
Default : Нет
Forced : Нет
Текст #2
Идентификатор : 16
Формат : UTF-8
Идентификатор кодека : S_TEXT/UTF8
Идентификатор кодека/Информация : UTF-8 Plain Text
Заголовок : надписи и пр.
Язык : Russian
Default : Нет
Forced : Нет
Текст #3
Идентификатор : 17
Формат : UTF-8
Идентификатор кодека : S_TEXT/UTF8
Идентификатор кодека/Информация : UTF-8 Plain Text
Заголовок : Комментарии Мела Гибсона
Язык : Russian
Default : Нет
Forced : Нет
Текст #4
Идентификатор : 18
Формат : ASS
Идентификатор кодека : S_TEXT/ASS
Идентификатор кодека/Информация : Advanced Sub Station Alpha
Метод сжатия : Без потерь
Язык : English
Default : Нет
Forced : Нет

Награды

Оскар, 1996 год
Победитель (5):
Лучший фильм
Лучший режиссер (Мэл Гибсон)
Лучшая работа оператора
Лучший монтаж звука
Лучший грим
Номинации (5):
Лучший сценарий
Лучшие костюмы
Лучший звук
Лучший монтаж
Лучший саундтрек к драматическому фильму
Золотой глобус, 1996 год
Победитель (1):
Лучший режиссер (Мэл Гибсон)
Номинации (3):
Лучший фильм (драма)
Лучший сценарий
Лучший саундтрек
Премия канала «MTV», 1996 год
Победитель (1):
Лучшая экшн-сцена
Номинации (2):
Лучший фильм
Лучшая мужская роль (Мэл Гибсон)
Британская академия, 1996 год
Победитель (3):
Лучшая работа оператора
Лучшие костюмы
Лучший звук
Номинации (4):
Лучший грим/прически
Лучшая работа художника-постановщика
Премия имени Дэвида Лина за достижения в режиссуре (Мэл Гибсон)
Премия имени Энтони Эскуита за достижения в создании музыки к фильму
Сатурн, 1996 год
Номинации (3):
Лучшие костюмы
Лучшая музыка
Лучший приключенческий фильм или боевик
[Профиль]  [ЛС] 

F1eanor

Стаж: 7 лет 7 месяцев

Сообщений: 440

Создавать темы 27-Май-2015 17:01 (спустя 1 час 41 минута)

[Цитировать] 

Легендарный фильм -веха в кино! Отзывы излишни!
[Профиль]  [ЛС] 

den_cat

Стаж: 6 лет 8 месяцев

Сообщений: 151

Откуда: Севастополь

Создавать темы 29-Май-2015 14:37 (спустя 1 день 21 час)

[Цитировать] 

однозначно забираю в коллекцию!
[Профиль]  [ЛС] 
Похожие темы
Форум Тема Автор Размер
HD Храбрая сердцем / Brave (2012) BDRip F1eanor 7,18 GB
Зарубежное кино Храбрец / The Brave (Джонни Депп) (1997, драма, DVDRip) anatolyi100 1,45 GB
Показать сообщения:    
Ответить на тему

Текущее время: 03-Дек 05:23

Часовой пояс: UTC + 3



Вы не можете начинать темы
Вы не можете отвечать на сообщения
Вы не можете редактировать свои сообщения
Вы не можете удалять свои сообщения
Вы не можете голосовать в опросах
Вы не можете прикреплять файлы к сообщениям
Вы не можете скачивать файлы