Мизандрия (Мужененавистничество) (2015) DVDRip [H.264] [MP4|640x480]

Ответить на тему
Статистика раздачи [Обновить пиров]
Скачал: [ 5 ]
 
   
 
 
Автор
Сообщение

Magush ®

Стаж: 7 лет

Сообщений: 130

Откуда: Севастополь

Создавать темы 29-Май-2015 11:20

[Цитировать] 

Мизандрия «Фильм-лекция о мужском бесправии»
Год выпуска: 2015
Жанр: Документальный, Познавательный
Производство: Телекомпания «Мужской Фронт»
Сайт фильма: http://мизандрия.рф
Продолжительность: 01:58:20
Перевод: Не требуется
Описание: Пособие по правовой и бытовой дискриминации мужчин. Прослеживается история современного российского мужененавистничества от середины прошлого века до наших дней: истоки, причины, грустные последствия, а также - шокирующая статистика. Можно считать этот фильм открытым обращением для проведения реформ законодательства РФ.

MediaInfo

X:\Фильмы\Документальные\Архив\МИЗАНДРИЯ.Фильм.о.мужском.бесправии.в.РФ.2015.mp4
General
Complete name : X:\Фильмы\Документальные\Архив\МИЗАНДРИЯ.Фильм.о.мужском.бесправии.в.РФ.2015.mp4
Format : MPEG-4
Format profile : Base Media / Version 2
Codec ID : mp42
File size : 3.41 GiB
Duration : 1h 58mn
Overall bit rate : 4 122 Kbps
Encoded date : UTC 2015-04-12 08:45:06
Tagged date : UTC 2015-04-12 08:45:06
Video #2
ID : 2
Format : AVC
Format/Info : Advanced Video Codec
Format profile : [email protected]
Format settings, CABAC : Yes
Format settings, ReFrames : 5 frames
Format settings, GOP : M=3, N=24
Codec ID : avc1
Codec ID/Info : Advanced Video Coding
Duration : 1h 58mn
Bit rate mode : Variable
Bit rate : 3 990 Kbps
Width : 640 pixels
Height : 480 pixels
Display aspect ratio : 3:2
Frame rate mode : Constant
Frame rate : 25.000 fps
Standard : NTSC
Color space : YUV
Chroma subsampling : 4:2:0
Bit depth : 8 bits
Scan type : Progressive
Bits/(Pixel*Frame) : 0.519
Stream size : 3.30 GiB (97%)
Language : English
Encoded date : UTC 2015-04-12 08:45:06
Tagged date : UTC 2015-04-12 08:45:06
Audio #1
ID : 1
Format : AAC
Format/Info : Advanced Audio Codec
Format profile : LC
Codec ID : 40
Duration : 1h 58mn
Source duration : 1h 58mn
Bit rate mode : Constant
Bit rate : 128 Kbps
Channel(s) : 2 channels
Channel positions : Front: L R
Sampling rate : 44.1 KHz
Compression mode : Lossy
Stream size : 108 MiB (3%)
Source stream size : 108 MiB (3%)
Language : English
Encoded date : UTC 2015-04-12 08:45:06
Tagged date : UTC 2015-04-12 08:45:06
Качество: DVDRip
Формат: MP4
Видео кодек: AVC/H.264
Аудио кодек: AAC
Видео: 640x480, 25.000 fps, ~3990 kbps
Аудио: 44,1 КГц ,2 канала, ~128 kbps
[Профиль]  [ЛС] 

Gennadiy

Стаж: 7 лет 2 месяца

Сообщений: 13

Создавать темы 03-Июн-2015 18:43 (спустя 5 дней)

[Цитировать] 

Спасибо за правильную документалку! Я бы его вмонтировал нашим бабам в головы, чтобы немного спустились на землю, знали свою историю и место!
[Профиль]  [ЛС] 

Тоха™

Стаж: 8 лет 7 месяцев

Сообщений: 741

Откуда: N44°35'16.29" E033°30'28.48"

Создавать темы 04-Июн-2015 19:56 (спустя 1 день 1 час)

[Цитировать] 

каждому достаётся та,которой он сам и достоин-чё ныть?
[Профиль]  [ЛС] 

Gennadiy

Стаж: 7 лет 2 месяца

Сообщений: 13

Создавать темы 11-Сен-2015 23:37 (спустя 3 месяца 7 дней)

[Цитировать] 

этот фильм не о том кто кого достоин! посмотри сначала,и подумай,если у тебя есть чем! Судя по твоему бреду, что ты отписался ещё и матом, походу думать тебе и нечем!
[Профиль]  [ЛС] 

Gennadiy

Стаж: 7 лет 2 месяца

Сообщений: 13

Создавать темы 11-Сен-2015 23:39 (спустя 2 минуты)

[Цитировать] 

Ты просто [censored]!!!-Запрет на отправление сообщений на 2 дня! Учитесь общаться не переходя на личности.
[Профиль]  [ЛС] 
Показать сообщения:    
Ответить на тему

Текущее время: 09-Дек 16:24

Часовой пояс: UTC + 3



Вы не можете начинать темы
Вы не можете отвечать на сообщения
Вы не можете редактировать свои сообщения
Вы не можете удалять свои сообщения
Вы не можете голосовать в опросах
Вы не можете прикреплять файлы к сообщениям
Вы не можете скачивать файлы