Прослушка / The Wire (1-5 сезоны: 1-60 серий из 60) (Джо Чаппелль, Клемент Вирго, Роб Бэйли) [2002-2008 г., Триллер, драма, криминал, детектив, WEB-DLRip] MVO

Ответить на тему
Статистика раздачи [Обновить пиров]
Качаю: [ 3 ]
Скачал: [ 2 ]
 
   
 
 
Автор
Сообщение

mihis ®

Стаж: 2 года 1 месяц

Сообщений: 221

Создавать темы 12-Июн-2015 13:52

[Цитировать] 

Прослушка / The Wire«A new case begins...»1-5 сезон: 60 серийГод выпуска: 2002-2008
Страна: США, Blown Deadline Productions, Home Box Office (HBO)
Жанр: Триллер, драма, криминал, детектив
Продолжительность: 60 x ~ 00:58:00
Перевод: Профессиональный (многоголосый, закадровый) FoxCrime
Режиссер: Джо Чаппелль, Клемент Вирго, Роб Бэйли
В ролях: Доминик Уэст, Джон Доумен, Дирдри Лавджой, Уенделл Пирс, Лэнс Реддик, Соня Сон, Сет Гиллиам, Доменик Ломбардоззи, Кларк Питерс, Андре Ройо, Майкл К. Уильямс, Джим Тру-Фрост, Фрэнки Фэйзон, Кори Паркер Робинсон, Делани Уильямс, Дж.Д. Уильямс, Вуд Харрис, Идрис Эльба, Эйден Гиллен, Джэми Гектор, Гбенга Акиннагбе, Роберт Уиздом, Чад Коулмэн, Анван Гловер, Майкл Кострофф, Трей Чейни, Исайя Уитлок мл., Майкл Салкони, Фелиция Пирсон, Роберт Ф. Чю
Описание: Самый популярный в америке сериал про полицейских. Сериал повествует о полицейских расследованиях в Балтиморе. Именно этот сериал, любимый сериал полицейских и гангстеров помог правоохранительным органам разгромить сеть наркоторговцев. Полицейские источники сообщили, что лидеры преступной группировки вели себя в точности как герои телесериала, в частности, постоянно меняли мобильные телефоны, затрудняя прослушивание. В ходе подготовки операции полицейские широко применяли прослушивание телефонных разговоров гангстеров. В результате были арестованы 12 человек, изъяты 43 кг кокаина, 500.000 долларов наличными, 18 единиц оружия и пять дорогостоящих автомобилей. Бандиты, оказавшиеся большими поклонниками "Прослушки", помимо обсуждения своих дел по телефону, говорили и о сюжете очередной серии. Полицейские, прослушивавшие их, тоже любили этот фильм. Если мы пропускали какой-то эпизод, то всегда могли узнать подробности из их бесед, – сообщили стражи порядка Криминальная драма, написана, снята и спродюсирована в Балтиморе бывшим полицейским репортером Дэвидом Саймоном.

Качество: WEB-DLRip
Формат: AVI
Видео кодек: XviD
Аудио кодек: MP3
Видео: 720x400 (1.80:1), 23.976 fps, XviD build 50 ~1451 kbps avg, 0.21 bit/pixel
Аудио: 48 kHz, MPEG Layer 3, 2 ch, ~128 kbps avg

Содержание

1 Сезон
01. The Target
02. The Detail
03. The Buys
04. Old Cases
05. The Pager
06. The Wire
07. One Arrest
08. Lessons
09. Game Day
10. The Cost
11. The Hunt
12. Cleaning Up
13. Sentencing
2 Сезон
01. Ebb Tide
02. Collateral Damage
03. Hot Shots
04. Hard Cases
05. Undertow
06. All Prologue
07. Backwash
08. Duck and Cover
09. Stray Rounds
10. Storm Warnings
11. Bad Dreams
12. Port in a Storm
3 Сезон
01. Time After Time
02. All Due Respect
03. Dead Soldiers
04. Hamsterdam
05. Straight and True
06. Homecoming
07. Back Burners
08. Moral Midgetry
09. Slapstick
10. Reformation
11. Middle Ground
12. Mission Accomplished
4 Сезон
01. Boys of Summer
02. Soft Eyes
03. Home Rooms
04. Refugees
05. Alliances
06. Margin of Error
07. Unto Others
08. Corner Boys
09. Know Your Place
10. Misgivings
11. A New Day
12. That's Got His Own
13. Final Grades
5 Сезон
01. More with Less
02. Unconfirmed Reports
03. Not for Attribution
04. Transitions
05. React Quotes
06. The Dickensian Aspect
07. Took
08. Clarifications
09. Late Editions
10. -30-

MI

Полное имя : D:The.Wire59.The.Wire.tahiy.avi
Формат : AVI
Формат/Информация : Audio Video Interleave
Размер файла : 679 Мбайт
Продолжительность : 59 м.
Общий поток : 1584 Кбит/сек
Название фильма : The.Wire.tahiy
Программа кодирования : VirtualDubMod 1.5.10.3 | www.virtualdub-fr.org || (build 2550/release)
Видео
Идентификатор : 0
Формат : MPEG-4 Visual
Профиль формата : Advanced [email protected]
Параметр BVOP формата : 1
Параметр QPel формата : Нет
Параметр GMC формата : Без точки перехода
Параметр матрицы формата : Default (MPEG)
Идентификатор кодека : XVID
Идентификатор кодека/Подсказка : XviD
Продолжительность : 59 м.
Битрейт : 1447 Кбит/сек
Ширина : 720 пикселей
Высота : 400 пикселей
Соотношение сторон : 16:9
Частота кадров : 23,976 кадра/сек
Цветовое пространство : YUV
Субдискретизация насыщенности : 4:2:0
Битовая глубина : 8 бит
Тип развёртки : Прогрессивная
Метод сжатия : С потерями
Бит/(Пиксели*Кадры) : 0.210
Размер потока : 620 Мбайт (91%)
Библиотека кодирования : XviD 73
Аудио
Идентификатор : 1
Формат : MPEG Audio
Версия формата : Version 1
Профиль формата : Layer 3
Режим : Joint stereo
Идентификатор кодека : 55
Идентификатор кодека/Подсказка : MP3
Продолжительность : 59 м.
Вид битрейта : Постоянный
Битрейт : 128 Кбит/сек
Каналы : 2 канала
Частота : 48,0 КГц
Метод сжатия : С потерями
Размер потока : 54,8 Мбайт (8%)
Выравнивание : Соединение по промежуткам
Продолжительность промежутка : 42 мс. (1,00 видеокадр)
Время предзагрузки промежутка : 504 мс.
Библиотека кодирования : LAME3.99r
Настройки программы : -m j -V 4 -q 2 -lowpass 17 -b 128
[Профиль]  [ЛС] 
Похожие темы
Форум Тема Автор Размер
Зарубежные сериалы Прослушка/The Wire (1-5 сезоны: 1-60 серии из 60) (Джо Чаппелль, Клемент Вирго, Роб Бэйли ) [2002-2008 г., Триллер, драма, криминал, детектив, WEB-DLRip][Fox Crime] Serega624 39,53 GB
Показать сообщения:    
Ответить на тему

Текущее время: 04-Дек 11:08

Часовой пояс: UTC + 3



Вы не можете начинать темы
Вы не можете отвечать на сообщения
Вы не можете редактировать свои сообщения
Вы не можете удалять свои сообщения
Вы не можете голосовать в опросах
Вы не можете прикреплять файлы к сообщениям
Вы не можете скачивать файлы