Территория (Александр Мельник) [2014, Приключения, драма, DVDRip]

Ответить на тему
Статистика раздачи [Обновить пиров]
Скачал: [ 5 ]
 
   
 
 
Автор
Сообщение

камаз ®

Стаж: 8 лет

Сообщений: 48

Откуда: Бухта Казачья

Создавать темы 17-Июн-2015 23:05

[Цитировать] 

Территория
Жанр: Приключения, драма
Год выпуска: 2014
Продолжительность: 02:32:13
Режиссёр: Александр Мельник
В ролях: Константин Лавроненко, Григорий Добрыгин, Егор Бероев, Ксения Кутепова, Евгений Цыганов, Владислав Абашин, Герасим Васильев, Константин Шелестун, Константин Балакирев, Олег Шапков
Описание: Территория — это место, где люди проверяются на прочность. Необозримые пространства, где тундра встречается с ледяными торосами Ледовитого океана. Суровый русский север, которому способны бросить вызов немногие. Геолог Илья Чинков, одержимый идеей найти легендарное золото Территории, собирает команду смельчаков, готовых поставить на карту все, включая собственные жизни.
Доп. информация: В бухту Провидения контейнеровозом из Владивостока было доставлено 115 тонн дерева для строительства декорации «Посёлок геологов».
Во время зимней и летней экспедиций на плато Путорана вся съёмочная группа не имела возможности пользоваться сотовой связью и Интернетом. В наличии было всего 3 спутниковых телефона.
Во время зимней экспедиции на плато Путорана съемочная группа жила в палаточном лагере. Температура воздуха на улице достигала минус 45 °C. В течение 9 дней из-за плохой погоды на съемочную площадку не могли долететь даже вертолеты МЧС.
Качество видео: DVDRip
Формат видео: AVI
Видео: 720x304 (2.35:1), 25 fps, XviD 73 ~1597 kbps avg, 0.292 bit/pixel
Аудио: 48.0 kHz, AC3 Dolby Digital, 6 ch, ~448 kbps

MediaInfo

General
Complete name : F:\Download\Teritoria.2015.DVDRip..avi
Format : AVI
Format/Info : Audio Video Interleave
Format profile : OpenDML
File size : 2.19 GiB
Duration : 2h 32mn
Overall bit rate : 2 057 Kbps
Writing application : VirtualDubMod 1.5.10.3 | www.virtualdub-fr.org || (build 2550/release)
Writing library : VirtualDubMod build 2550/release
Video
ID : 0
Format : MPEG-4 Visual
Format profile : Advanced [email protected]
Format settings, BVOP : 1
Format settings, QPel : No
Format settings, GMC : No warppoints
Format settings, Matrix : Custom
Codec ID : XVID
Codec ID/Hint : XviD
Duration : 2h 32mn
Bit rate : 1 597 Kbps
Width : 720 pixels
Height : 304 pixels
Display aspect ratio : 2.35:1
Frame rate : 25.000 fps
Color space : YUV
Chroma subsampling : 4:2:0
Bit depth : 8 bits
Scan type : Progressive
Compression mode : Lossy
Bits/(Pixel*Frame) : 0.292
Stream size : 1.70 GiB (78%)
Writing library : XviD 73
Audio
ID : 1
Format : AC-3
Format/Info : Audio Coding 3
Mode extension : CM (complete main)
Format settings, Endianness : Big
Codec ID : 2000
Duration : 2h 32mn
Bit rate mode : Constant
Bit rate : 448 Kbps
Channel(s) : 6 channels
Channel positions : Front: L C R, Side: L R, LFE
Sampling rate : 48.0 KHz
Compression mode : Lossy
Stream size : 488 MiB (22%)
Alignment : Split accross interleaves
Interleave, duration : 40 ms (1.00 video frame)
Interleave, preload duratio : 500 ms

Скриншот c названием фильма

Скриншоты

[Профиль]  [ЛС] 

critickfetish

Стаж: 4 года 11 месяцев

Сообщений: 58

Создавать темы 10-Июл-2015 23:02 (спустя 22 дня)

[Цитировать] 

фильм про сильных людей
[Профиль]  [ЛС] 
Похожие темы
Форум Тема Автор Размер
Зарубежные сериалы Мутанты Икс / Mutant X (1-3 сезон: 1-66 серий из 66) ( Эндрю Поттер, Терри Ингрэм, Кен Джиротти) [2001-2004 г., Фантастика, фэнтези, боевик, драма, приключения, DVDRip ] MVO mihis 36,15 GB
Аудиокниги Пратчетт Терри - "Вор Времени" [Сергей Кирсанов, 2013] Oldket 536 MB
Аудиокниги Пратчетт Терри - "Движущиеся картинки" [Михаил Макушев , Ирина Шорнова, 2011] Oldket 573 MB
Аудиокниги Пратчетт Терри - "Мор, ученик Cмерти" [Макушев Михаил, 2011] Oldket 524 MB
Аудиокниги Пратчетт Терри - "Последний герой" [Капитан Абр, 2012] Oldket 333 MB
Аудиокниги Пратчетт Терри - "Посох и шляпа" [Капитан Абр, 2013] Oldket 1008 MB
Аудиокниги Пратчетт Терри - "Правда" Oldket 853 MB
Аудиокниги Пратчетт Терри -"Дамы и господа" Oldket 685 MB
Показать сообщения:    
Ответить на тему

Текущее время: 10-Дек 04:01

Часовой пояс: UTC + 3



Вы не можете начинать темы
Вы не можете отвечать на сообщения
Вы не можете редактировать свои сообщения
Вы не можете удалять свои сообщения
Вы не можете голосовать в опросах
Вы не можете прикреплять файлы к сообщениям
Вы не можете скачивать файлы