Неуловимые (Артем Аксененко) [2015, Приключения, комедия, криминал, WEB-DLRip]

Ответить на тему
Статистика раздачи [Обновить пиров]
Качаю: [ 2 ]
Скачал: [ 12 ]
 
   
 
 
Автор
Сообщение

камаз ®

Стаж: 7 лет 11 месяцев

Сообщений: 48

Откуда: Бухта Казачья

Создавать темы 18-Июн-2015 00:44

[Цитировать] 

Неуловимые
Жанр: Приключения, комедия, криминал
Год выпуска: 2015
Продолжительность: 01:29:40
Режиссёр: Артем Аксененко
В ролях: Александра Бортич, Иван Шахназаров, Илья Маланин, Анвар Халилулаев, Денис Шведов, Евгений Мундум, Джемал Тетруашвили, Ксения Баскакова, Павел Юлку, Александр Сазонов
Описание: Ночью в центре Москвы сбита девушка, ей срочно нужна сложнейшая операция. Ее подруга Кира находит виновника, наглого и циничного олигарха Сергея Полянского, который отказывается признать свою вину и помочь пострадавшей. Ему плевать, у него все схвачено. В отчаянии Кира обращается за помощью к трем парням симпатизирующим ей - быковатому Феде, самоуверенному красавчику Артему и компьютерному гению Жене. Парни заключают между собой пакт - «поможем девушке, накажем негодяя, а потом решим, кто станет ее парнем».
Качество видео:WEB-DLRip
Формат видео: AVI
Видео: MPEG4, XviD, 720x384 (1.875), 25.000 fps, 1 879 Kbps (0.272 bit/pixel)
Аудио: AC-3, 44.1 KHz, 2 ch, 384 Kbps, CBR

MediaInfo

Общее
Полное имя : C:\Users\1\Downloads\H3ylovym1e.2015.O.WEB-DLRip.1400MB.avi
Формат : AVI
Формат/Информация : Audio Video Interleave
Размер файла : 1,37 Гбайт
Продолжительность : 1 ч. 26 м.
Общий поток : 2273 Кбит/сек
Программа кодирования : VirtualDubMod 1.5.10.3 | www.virtualdub-fr.org || (build 2550/release)
Библиотека кодирования : VirtualDubMod build 2550/release
Видео
Идентификатор : 0
Формат : MPEG-4 Visual
Профиль формата : Advanced [email protected]
Параметр BVOP формата : 2
Параметр QPel формата : Нет
Параметр GMC формата : Без точки перехода
Параметр матрицы формата : Default (MPEG)
Идентификатор кодека : XVID
Идентификатор кодека/Подсказка : XviD
Продолжительность : 1 ч. 26 м.
Битрейт : 1879 Кбит/сек
Ширина : 720 пикселей
Высота : 384 пикселя
Соотношение сторон : 1,85:1
Частота кадров : 25,000 кадров/сек
Цветовое пространство : YUV
Субдискретизация насыщенности : 4:2:0
Битовая глубина : 8 бит
Тип развёртки : Прогрессивная
Метод сжатия : С потерями
Бит/(Пиксели*Кадры) : 0.272
Размер потока : 1,13 Гбайт (83%)
Библиотека кодирования : XviD 1.2.1 (UTC 2008-12-04)
Аудио
Идентификатор : 1
Формат : AC-3
Формат/Информация : Audio Coding 3
Расширение режима : CM (complete main)
Параметр Endianness формата : Big
Идентификатор кодека : 2000
Продолжительность : 1 ч. 26 м.
Вид битрейта : Постоянный
Битрейт : 384 Кбит/сек
Каналы : 2 канала
Расположение каналов : Front: L R
Частота : 44,1 КГц
Битовая глубина : 16 бит
Метод сжатия : С потерями
Размер потока : 237 Мбайт (17%)
Выравнивание : Разделение по промежуткам
Продолжительность промежутка : 40 мс. (1,00 видеокадр)
Время предзагрузки промежутка : 500 мс.

Скриншот c названием фильма

Скриншоты

[Профиль]  [ЛС] 
Показать сообщения:    
Ответить на тему

Текущее время: 06-Дек 11:09

Часовой пояс: UTC + 3



Вы не можете начинать темы
Вы не можете отвечать на сообщения
Вы не можете редактировать свои сообщения
Вы не можете удалять свои сообщения
Вы не можете голосовать в опросах
Вы не можете прикреплять файлы к сообщениям
Вы не можете скачивать файлы