Индустрия Света и Магии: Создавая Невозможное / Industrial Light and Magic: Creating the Impossible (2010) HDTV [H.264] [MPEG-TS|1080i]

Ответить на тему
Статистика раздачи [Обновить пиров]
Скачал: [ 2 ]
 
   
 
 
Автор
Сообщение

Magush ®

Стаж: 7 лет

Сообщений: 130

Откуда: Севастополь

Создавать темы 18-Июн-2015 08:26

[Цитировать] 

Индустрия Света и Магии: Создавая Невозможное
Год выпуска: 2010
Жанр: Документальный
Перевод: Многоголосый закадровый, профессиональный
Продолжительность:00:57:17
Производство: США, Leslie Iwerks Productions
Режиссер: Лесли Айверкс
Участники: Том Круз, Джордж Лукас, Стивен Спилберг, Рон Ховард, Джон Фавро, Джей Джей Абрамс, Джерри Брукхаймер, Сэмюэл Л. Джексон, Робин Уильямс, Сет Грин
Описание: Том Круз, Джордж Лукас, Стивен Спилберг и Самюэль Л. Джексон в документальном фильме о лучшей студии спецэффектов в Голливуде. Здесь невозможное становится реальностью. Студия Джорджа Лукаса. подарила миру «Звездные войны» и «Трансформеров». Как это делается? Кто стоит за всем этим волшебством? Экскурсия по студии, уникальные технологии и интервью с актерами, художниками, техниками и всеми теми, кто создает чудеса графики и анимации.

MediaInfo

X:\Фильмы\Документальные\Архив\Industrial Light & Magic Creating the Impossible.ts
General #16
ID : 16 (0x10)
Complete name : X:\Фильмы\Документальные\Архив\Industrial Light & Magic Creating the Impossible.ts
Format : MPEG-TS
File size : 3.14 GiB
Duration : 57mn 12s
Overall bit rate : 7 858 Kbps
Video #1812
ID : 1812 (0x714)
Menu ID : 812 (0x32C)
Format : AVC
Format/Info : Advanced Video Codec
Format profile : [email protected]
Format settings, CABAC : Yes
Format settings, ReFrames : 4 frames
Codec ID : 27
Duration : 57mn 12s
Bit rate : 6 693 Kbps
Width : 1 920 pixels
Height : 1 080 pixels
Display aspect ratio : 16:9
Frame rate : 25.000 fps
Standard : PAL
Color space : YUV
Chroma subsampling : 4:2:0
Bit depth : 8 bits
Scan type : MBAFF
Bits/(Pixel*Frame) : 0.129
Stream size : 2.67 GiB (85%)
Color primaries : BT.709
Transfer characteristics : BT.709
Matrix coefficients : BT.709
Audio #2812
ID : 2812 (0xAFC)
Menu ID : 812 (0x32C)
Format : MPEG Audio
Format version : Version 1
Format profile : Layer 2
Codec ID : 4
Duration : 57mn 11s
Bit rate mode : Constant
Bit rate : 192 Kbps
Channel(s) : 2 channels
Sampling rate : 48.0 KHz
Compression mode : Lossy
Delay relative to video : 95ms
Stream size : 78.5 MiB (2%)
Language : std
Language, more info : Clean effects
Audio #3812
ID : 3812 (0xEE4)
Menu ID : 812 (0x32C)
Format : MPEG Audio
Format version : Version 1
Format profile : Layer 2
Codec ID : 4
Duration : 57mn 11s
Bit rate mode : Constant
Bit rate : 192 Kbps
Channel(s) : 2 channels
Sampling rate : 48.0 KHz
Compression mode : Lossy
Delay relative to video : 95ms
Stream size : 78.5 MiB (2%)
Language : std
Language, more info : Clean effects
Audio #4812
ID : 4812 (0x12CC)
Menu ID : 812 (0x32C)
Format : AC-3
Format/Info : Audio Coding 3
Mode extension : CM (complete main)
Format settings, Endianness : Big
Codec ID : 6
Duration : 57mn 11s
Bit rate mode : Constant
Bit rate : 384 Kbps
Channel(s) : 6 channels
Channel positions : Front: L C R, Side: L R, LFE
Sampling rate : 48.0 KHz
Bit depth : 16 bits
Compression mode : Lossy
Delay relative to video : 119ms
Stream size : 157 MiB (5%)
Language : std
Language, more info : Clean effects
Text #63-100
ID : 63 (0x3F)-100
Menu ID : 812 (0x32C)
Format : Teletext
Качество: HDTV
Формат: MPEG-TS
Видео кодек: AVC/H.264
Аудио кодек:MPEG audio/AC-3
Видео: 1920x1080, 25.000 fps, ~6693 kb/s
Аудио 1: Russian / MPEG Audio Layer 2 / 2.0 / 48 kHz / 192 kbps (MVO)
Аудио 2: English / MPEG Audio Layer 2 / 2.0 / 48 kHz / 192 kbps - оригинал
Аудио 3: Russian / АС-3 / 5.1 / 48 kHz / 384 kbps (MVO)
[Профиль]  [ЛС] 
Показать сообщения:    
Ответить на тему

Текущее время: 04-Дек 00:46

Часовой пояс: UTC + 3



Вы не можете начинать темы
Вы не можете отвечать на сообщения
Вы не можете редактировать свои сообщения
Вы не можете удалять свои сообщения
Вы не можете голосовать в опросах
Вы не можете прикреплять файлы к сообщениям
Вы не можете скачивать файлы