Дабл трабл (Эдуард Оганесян) [2015, Комедия, WEB-DLRip]

Ответить на тему
Статистика раздачи [Обновить пиров]
Качаю: [ 1 ]
Скачал: [ 8 ]
 
   
 
 
Автор
Сообщение

камаз ®

Стаж: 7 лет 11 месяцев

Сообщений: 48

Откуда: Бухта Казачья

Создавать темы 27-Июн-2015 21:59

[Цитировать] 

Дабл трабл
Жанр: Комедия
Год выпуска: 2015
Продолжительность: 01:20:21
Режиссёр: Эдуард Оганесян
В ролях: Даниил Белых, Екатерина Варнава, Лера Куликова, Даниил Кузнец, Слава, Сергей Мезенцев, Владимир Тишко, Юлия Морозова, Лена Горностаева, Саймон...
Описание: Роман ведет холостяцкий образ жизни и свое шоу на радио. Как заправский психолог он раздает советы слушателям, приправляя их колкими шутками. Пока одна из них не оборачивается против него самого. На вопрос 20-летней Алены, ехать ли ей к отцу, Роман отвечает «Конечно! Я был бы рад». Он не знает, что в эфире — плод его случайной связи, а он сам в одночасье стал не только отцом, но и дедушкой Алениного сына. Новоиспеченные родственники погружают в ад беззаботного Романа и его девушку Сашу, светскую львицу и владелицу радиостанции. Не меньшее разочарование ждет и Алену. Только чудо сможет сделать их четверых одной семьей…
Качество видео: WEB-DLRip
Формат видео: AVI
Видео: 720x304 (2,35:1), 25 fps, XviD build 50 ~2042 kbps avg, 0.373 bit/pixel
Аудио: 48 kHz, AC3 Dolby Digital, 2/0 (L,R) ch, ~384 kbps

MediaInfo

Общее
Полное имя : D:\ФИЛЬМЫ\Дабл трабл.WEBRip.1400Mb.avi
Формат : AVI
Формат/Информация : Audio Video Interleave
Размер файла : 1,37 Гбайт
Продолжительность : 1 ч. 20 м.
Общий поток : 2436 Кбит/сек
Программа кодирования : VirtualDubMod 1.5.10.2 (build 2540/release)
Библиотека кодирования : VirtualDubMod build 2540/release
Видео
Идентификатор : 0
Формат : MPEG-4 Visual
Профиль формата : Advanced [email protected]
Параметр BVOP формата : 2
Параметр QPel формата : Нет
Параметр GMC формата : Без точки перехода
Параметр матрицы формата : Default (MPEG)
Идентификатор кодека : XVID
Идентификатор кодека/Подсказка : XviD
Продолжительность : 1 ч. 20 м.
Битрейт : 2042 Кбит/сек
Ширина : 720 пикселей
Высота : 304 пикселя
Соотношение сторон : 2,35:1
Частота кадров : 25,000 кадров/сек
Цветовое пространство : YUV
Субдискретизация насыщенности : 4:2:0
Битовая глубина : 8 бит
Тип развёртки : Прогрессивная
Метод сжатия : С потерями
Бит/(Пиксели*Кадры) : 0.373
Размер потока : 1,15 Гбайт (84%)
Библиотека кодирования : XviD 1.2.1 (UTC 2008-12-04)
Аудио
Идентификатор : 1
Формат : AC-3
Формат/Информация : Audio Coding 3
Расширение режима : CM (complete main)
Параметр Endianness формата : Big
Идентификатор кодека : 2000
Продолжительность : 1 ч. 20 м.
Вид битрейта : Постоянный
Битрейт : 384 Кбит/сек
Каналы : 2 канала
Расположение каналов : Front: L R
Частота : 48,0 КГц
Метод сжатия : С потерями
Размер потока : 221 Мбайт (16%)
Выравнивание : Разделение по промежуткам
Продолжительность промежутка : 40 мс. (1,00 видеокадр)
Время предзагрузки промежутка : 500 мс.

Скриншот c названием фильма

Скриншоты

[Профиль]  [ЛС] 
Показать сообщения:    
Ответить на тему

Текущее время: 03-Дек 20:40

Часовой пояс: UTC + 3



Вы не можете начинать темы
Вы не можете отвечать на сообщения
Вы не можете редактировать свои сообщения
Вы не можете удалять свои сообщения
Вы не можете голосовать в опросах
Вы не можете прикреплять файлы к сообщениям
Вы не можете скачивать файлы