Батальонъ (Дмитрий Месхиев) [2015г., Драма, военный, WEB-DLRip]

Ответить на тему
Статистика раздачи [Обновить пиров]
Скачал: [ 6 ]
 
   
 
 
Автор
Сообщение

mihis ®

Стаж: 2 года 1 месяц

Сообщений: 221

Создавать темы 10-Июл-2015 10:36

[Цитировать] 

Батальонъ
Год выпуска: 2015
Страна: Россия, Корнер Ворк, Art Pictures Studio
Жанр: Драма, военный
Продолжительность: 02:03:45
Перевод: Не требуется
Субтитры: Нет
Режиссер: Дмитрий Месхиев
В ролях: Мария Аронова, Мария Кожевникова, Ирина Рахманова, Марат Башаров, Янина Малинчик, Евгений Дятлов, Яков Шамшин, Алёна Кучкова, Валерия Шкирандо, Николай Аузин, Владимир Зайцев, Екатерина Вилкова, Сергей Тэсслер, Юлия Яновская (II), Дмитрий Шевченко, Артур Ваха
Описание: Весна 1917-го года. Февральская революция изменила жизнь России и ход Великой войны. Государь уже отрёкся от престола. В окопах, где противостояние с немцами длится уже не один год, вовсю ведут свою пропаганду большевики. Они призывают к миру с неприятелем. Российское офицерство фактически ничего не может решить без одобрения так называемых солдатских комитетов. Армия находится на пороге окончательного разложения. По приказу Временного правительства для поднятия боевого духа создаётся женский «Батальон смерти» под командованием георгиевского кавалера Марии Бочкарёвой. Своей службой «Батальон смерти» подаёт пример храбрости, мужества и спокойствия, поднимает дух солдат и доказывает, что каждая из этих женщин-героев достойна звания воина русской армии.

Качество: WEB-DLRip
Формат: AVI
Видео кодек: XviD
Аудио кодек: AC3
Видео: 720x304 (2.37:1), 25 fps, XviD build 50 ~1980 kbps avg, 0.36 bit/pixel
Аудио: 48 kHz, AC3 Dolby Digital, 3/2 (L,C,R,l,r) + LFE ch, ~384.00 kbps avg

MI

Общее
Полное имя : E:\Video\Batalion.2015.O.WEB-DLRip.2100MB.avi
Формат : AVI
Формат/Информация : Audio Video Interleave
Профиль формата : OpenDML
Размер файла : 2,05 Гбайт
Продолжительность : 2 ч. 3 м.
Общий поток : 2372 Кбит/сек
Программа кодирования : VirtualDubMod 1.5.10.2 (build 2540/release)
Библиотека кодирования : VirtualDubMod build 2540/release
Видео
Идентификатор : 0
Формат : MPEG-4 Visual
Профиль формата : Advanced [email protected]
Параметр BVOP формата : 2
Параметр QPel формата : Нет
Параметр GMC формата : Без точки перехода
Параметр матрицы формата : Default (MPEG)
Идентификатор кодека : XVID
Идентификатор кодека/Подсказка : XviD
Продолжительность : 2 ч. 3 м.
Битрейт : 1975 Кбит/сек
Ширина : 720 пикселей
Высота : 304 пикселя
Соотношение сторон : 2,35:1
Частота кадров : 25,000 кадров/сек
Цветовое пространство : YUV
Субдискретизация насыщенности : 4:2:0
Битовая глубина : 8 бит
Тип развёртки : Прогрессивная
Метод сжатия : С потерями
Бит/(Пиксели*Кадры) : 0.361
Размер потока : 1,71 Гбайт (83%)
Библиотека кодирования : XviD 1.2.1 (UTC 2008-12-04)
Аудио
Идентификатор : 1
Формат : AC-3
Формат/Информация : Audio Coding 3
Расширение режима : CM (complete main)
Параметр Endianness формата : Big
Идентификатор кодека : 2000
Продолжительность : 2 ч. 3 м.
Вид битрейта : Постоянный
Битрейт : 384 Кбит/сек
Каналы : 6 каналов
Расположение каналов : Front: L C R, Side: L R, LFE
Частота : 48,0 КГц
Битовая глубина : 16 бит
Метод сжатия : С потерями
Размер потока : 340 Мбайт (16%)
Выравнивание : Разделение по промежуткам
Продолжительность промежутка : 40 мс. (1,00 видеокадр)
Время предзагрузки промежутка : 500 мс.
[Профиль]  [ЛС] 

Clieft

Стаж: 8 лет 3 месяца

Сообщений: 1639

Откуда: руки растут! Репутация: порочная!

Создавать темы 11-Июл-2015 09:33 (спустя 22 часа)

[Цитировать] 

Уродливый фильм в котором все так грубо утрированно, мизандрия хлещет из всех дыр!
Режиссер - ЧМО!
[Профиль]  [ЛС] 
Похожие темы
Форум Тема Автор Размер
Наше кино Батальонъ (2015) BDRip Лицензия ЗвЕрЁк 2,18 GB
Наше кино Батальонъ (Дмитрий Месхиев) [2015, Драма, военный, исторический, WEB-DL (720p)] Serega624 3,87 GB
Показать сообщения:    
Ответить на тему

Текущее время: 07-Дек 17:23

Часовой пояс: UTC + 3



Вы не можете начинать темы
Вы не можете отвечать на сообщения
Вы не можете редактировать свои сообщения
Вы не можете удалять свои сообщения
Вы не можете голосовать в опросах
Вы не можете прикреплять файлы к сообщениям
Вы не можете скачивать файлы