Переправа / The Crossing (Джон Ву) [2014 г., Драма, история, BDRip 720p] Dub

Ответить на тему
Статистика раздачи [Обновить пиров]
Качаю: [ 2 ]
Скачал: [ 4 ]
 
   
 
 
Автор
Сообщение

mihis ®

Стаж: 2 года 1 месяц

Сообщений: 221

Создавать темы 31-Июл-2015 09:28

[Цитировать] 

Переправа / The Crossing«Самое сложное время, чтобы любить»Год выпуска: 2014
Страна: Китай, Япония, Корея Южная, США, Beijing Gallop Horse Film & TV Production, China Film Group Corporation
Жанр: Драма, история
Продолжительность: 02:08:14
Перевод:
Профессиональный (полное, дублирование) Лицензия
Оригинал
Субтитры: Китайские
Режиссер: Джон Ву
В ролях: Такеши Канеширо, Цзыи Чжан, Хе Гё Сон, Сяо Мин Хуан, Тун Давэй, Масами Нагасава, Шан Конг, Джек Као, Хитоми Куроки, Боуи Лам, Вэй Ли, Хайлу Цинь, Аарон Шанг
Описание: В центре повествования три пары, чьи судьбы драматически связаны с событиями, которые разворачиваются на фоне военных действий. Фильм основан на реальной трагедии потопления корабля «Тайпин», произошедшем в 1949 году и унесший жизни более 1500 пассажиров и экипажа.

Качество: BDRip 720p
Формат: MKV
Видео кодек: AVC
Аудио кодек: AC3
Видео: AVC, 1280x536 (2.35:1), 24.000 fps, 5 456 Kbps (0.331 bit/pixel)
Аудио #1: AC3, 48.0 KHz, 6 ch, 384 Kbps, CBR Dub
Аудио #2: AC3, 48.0 KHz, 6 ch, 640 Kbps, CBR Chi

MediaInfo

Общее
Уникальный идентификатор : 246812551940822104623564795272147317967 (0xB9AE5E524D993021B8E258D4228534CF)
Полное имя : E:\Video\pePepPaBa..2014.D.BDRip.720p.mkv
Формат : Matroska
Версия формата : Version 2
Размер файла : 5,81 Гбайт
Продолжительность : 2 ч. 8 м.
Общий поток : 6485 Кбит/сек
Название фильма : Jubowo @ WiKi
Дата кодирования : UTC 2015-07-30 18:53:33
Программа кодирования : mkvmerge v8.2.0 ('World of Adventure') 64bit
Библиотека кодирования : libebml v1.3.1 + libmatroska v1.4.2
DURATION : 02:08:12.608000000
NUMBER_OF_FRAMES : 240394
NUMBER_OF_BYTES : 369245184
_STATISTICS_WRITING_APP : mkvmerge v8.2.0 ('World of Adventure') 64bit
_STATISTICS_WRITING_DATE_UTC : 2015-07-30 18:53:33
_STATISTICS_TAGS : BPS DURATION NUMBER_OF_FRAMES NUMBER_OF_BYTES
Видео
Идентификатор : 1
Формат : AVC
Формат/Информация : Advanced Video Codec
Профиль формата : [email protected]
Параметр CABAC формата : Да
Параметр ReFrames формата : 12 кадров
Идентификатор кодека : V_MPEG4/ISO/AVC
Продолжительность : 2 ч. 8 м.
Битрейт : 5456 Кбит/сек
Ширина : 1280 пикселей
Высота : 536 пикселей
Соотношение сторон : 2,40:1
Режим частоты кадров : Постоянный
Частота кадров : 24,000 кадра/сек
Цветовое пространство : YUV
Субдискретизация насыщенности : 4:2:0
Битовая глубина : 8 бит
Тип развёртки : Прогрессивная
Бит/(Пиксели*Кадры) : 0.331
Размер потока : 4,78 Гбайт (82%)
Библиотека кодирования : x264 core 129 r2245+704+36 8e61944 tMod+MixAQ [[email protected]:2:0 X86_64]
Настройки программы : cabac=1 / ref=12 / deblock=1:-3:-3 / analyse=0x3:0x133 / me=umh / subme=11 / psy=1 / fade_compensate=0.00 / psy_rd=1.05:0.10 / mixed_ref=1 / me_range=32 / chroma_me=1 / trellis=2 / 8x8dct=1 / cqm=0 / deadzone=21,11 / fast_pskip=0 / chroma_qp_offset=-3 / threads=18 / lookahead_threads=3 / sliced_threads=0 / nr=0 / decimate=0 / interlaced=0 / bluray_compat=0 / constrained_intra=0 / fgo=0 / bframes=10 / b_pyramid=2 / b_adapt=2 / b_bias=0 / direct=3 / weightb=1 / open_gop=0 / weightp=2 / keyint=250 / keyint_min=23 / scenecut=40 / intra_refresh=0 / rc_lookahead=80 / rc=2pass / mbtree=1 / bitrate=5456 / ratetol=1.0 / qcomp=0.70 / qpmin=0 / qpmax=69 / qpstep=4 / cplxblur=20.0 / qblur=0.5 / ip_ratio=1.40 / aq=1 / aq-strength=0.85 / aq-sensitivity=10.00 / aq-ifactor=1.00 / aq-pfactor=1.00 / aq-bfactor=1.00 / aq2=0
Язык : Chinese
Default : Да
Forced : Нет
Коэффициенты матрицы : BT.709
Аудио #1
Идентификатор : 2
Формат : AC-3
Формат/Информация : Audio Coding 3
Расширение режима : CM (complete main)
Параметр Endianness формата : Big
Идентификатор кодека : A_AC3
Продолжительность : 2 ч. 8 м.
Вид битрейта : Постоянный
Битрейт : 384 Кбит/сек
Каналы : 6 каналов
Расположение каналов : Front: L C R, Side: L R, LFE
Частота : 48,0 КГц
Битовая глубина : 16 бит
Метод сжатия : С потерями
Размер потока : 352 Мбайт (6%)
Язык : Russian
Default : Да
Forced : Нет
Аудио #2
Идентификатор : 3
Формат : AC-3
Формат/Информация : Audio Coding 3
Расширение режима : CM (complete main)
Параметр Endianness формата : Big
Идентификатор кодека : A_AC3
Продолжительность : 2 ч. 8 м.
Вид битрейта : Постоянный
Битрейт : 640 Кбит/сек
Каналы : 6 каналов
Расположение каналов : Front: L C R, Side: L R, LFE
Частота : 48,0 КГц
Битовая глубина : 16 бит
Метод сжатия : С потерями
Размер потока : 587 Мбайт (10%)
Язык : Chinese
Default : Нет
Forced : Нет
Текст #1
Идентификатор : 4
Формат : UTF-8
Идентификатор кодека : S_TEXT/UTF8
Идентификатор кодека/Информация : UTF-8 Plain Text
Заголовок : Simplified
Default : Да
Forced : Нет
Текст #2
Идентификатор : 5
Формат : UTF-8
Идентификатор кодека : S_TEXT/UTF8
Идентификатор кодека/Информация : UTF-8 Plain Text
Заголовок : Traditional
Язык : Chinese
Default : Нет
Forced : Нет
Меню
00:00:00.000 : en:00:00:00.000
00:11:49.708 : en:00:11:49.708
00:19:25.250 : en:00:19:25.250
00:26:32.583 : en:00:26:32.583
00:36:24.416 : en:00:36:24.416
00:43:05.416 : en:00:43:05.416
00:54:03.916 : en:00:54:03.916
01:03:53.708 : en:01:03:53.708
01:11:12.375 : en:01:11:12.375
01:21:18.291 : en:01:21:18.291
01:26:56.875 : en:01:26:56.875
01:33:13.958 : en:01:33:13.958
01:41:22.916 : en:01:41:22.916
01:50:31.041 : en:01:50:31.041
02:02:11.541 : en:02:02:11.541
[Профиль]  [ЛС] 
Похожие темы
Форум Тема Автор Размер
Поп музыка AV - Перепевки, которые звучали на дискотеках (1часть) (2016) MP3 yura64 435 MB
Поп музыка AV - Перепевки,которые звучали на дискотеках (2 часть) (2016) MP3 yura64 447 MB
Поп музыка AV - Перепевки,которые звучали на дискотеках (3 часть) (2016) MP3 yura64 493 MB
HD Переправа 2 / The Crossing 2 (Джон Ву) [2015 г., Драма, история, BDRip 720p] Dub mihis 6,49 GB
Показать сообщения:    
Ответить на тему

Текущее время: 11-Дек 12:54

Часовой пояс: UTC + 3



Вы не можете начинать темы
Вы не можете отвечать на сообщения
Вы не можете редактировать свои сообщения
Вы не можете удалять свои сообщения
Вы не можете голосовать в опросах
Вы не можете прикреплять файлы к сообщениям
Вы не можете скачивать файлы