Михайло Ломоносов (1-9 серии из 9) (Александр Прошкин) [1984-1986 г., Драма, биография, исторический, DVDRip-AVC]

Ответить на тему
Статистика раздачи [Обновить пиров]
Качаю: [ 1 ]
 
   
 
 
Автор
Сообщение

mihis ®

Стаж: 2 года 1 месяц

Сообщений: 221

Создавать темы 03-Авг-2015 18:09

[Цитировать] 

Михайло Ломоносов9 серийГод выпуска: 1984-1986
Страна: СССР, киностудия Мосфильм
Жанр: Драма, биография, исторический
Продолжительность: 9 x ~ 01:10:00
Перевод: Оригинал
Субтитры: нет
Режиссер: Александр Прошкин
В ролях: Александр Михайлов (III), Игорь Волков, Виктор Степанов, Илзе Лиепа, Анатолий Васильев, Настя Деревщикова, Людмила Полякова, Андрей Дударенко, Сергей Плотников (I), Борис Плотников, Кирилл Козаков, Виктор Сергачёв, Катрин Кохв, Сос Саркисян, Александр Ткаченок, Наталья Сайко, Андрей Болтнев, Марина Полицеймако, Олег Меньшиков, Алексей Жарков, Александр Домогаров, Аристарх Ливанов, Марина Яковлева, Лев Лемке, Александр Стариков, Георгий Дрозд, Иван Воронов, Сергей Варчук, Константин Карельских, Валерий Афанасьев, Николай Волков мл., Андрей Гусев, Вадим Гусев, Андрей Давыдов, Андрей Андреев (II), Сергей Коковкин, Андрей Подошьян, Михаил Ремизов, Николай Аверюшкин, Анна Иса
Описание: История России 18-го века через жизнь и деятельность выдающегося учёного и литератора Михайло Ломоносова, в трех фильмах: "От недр своих", "Врата учености" и "Во славу Отечества".
Фильм 1 - "От Недр Своих", 1984 г.: Фильм охватывает детские и юношеские годы Ломоносова. Большое впечатление производит на юношу посещение Соловецкого монастыря и беседы со старообрядцем Мошкарем. Стремление учиться приводит юношу в Москву. Впереди - Петербург и необыкновенная судьба...
Фильм 2 - "Врата Учености", 1986 г.: В Фильме “Врата учености” рассказывается о том, как Михайло Ломоносов продолжал образование в Германии, а затем, вернувшись на родину, возглавил борьбу за становление и развитие отечественной науки.
Фильм 3 - "Во Славу Отечества", 1986 г.: В Фильме “Во славу Отечества” события происходят спустя 20 лет и рассказывают о последних годах жизни ученого, ставшего академиком и получившего мировую известность за свои научные открытия.

Качество: DVDRip-AVC
Формат: MKV
Видео кодек: AVC
Аудио кодек: AC3
Видео: AVC, [email protected], [email protected] (4:3), 25.000 fps, 2 250 Kbps (0.218 bit/pixel)
Аудио: AC3, 48.0 KHz, 2 ch, 192 Kbps, CBR

M.I.

Общее
Уникальный идентификатор : 242093578431043347676582477626672003721 (0xB62186F6DE70E28981564B06A555BA89)
Полное имя : E:\Video\Михайло Ломоносов_1984-86-DVDRip-AVC\Ломоносов-1.mkv
Формат : Matroska
Версия формата : Version 2
Размер файла : 1,23 Гбайт
Продолжительность : 1 ч. 11 м.
Общий поток : 2444 Кбит/сек
Дата кодирования : UTC 2015-01-15 11:49:26
Программа кодирования : mkvmerge v5.2.1 ('A Far Off Place') built on Jan 31 2012 17:07:03
Библиотека кодирования : libebml v1.2.3 + libmatroska v1.3.0
Видео
Идентификатор : 1
Формат : AVC
Формат/Информация : Advanced Video Codec
Профиль формата : [email protected]
Параметр CABAC формата : Да
Параметр ReFrames формата : 15 кадров
Идентификатор кодека : V_MPEG4/ISO/AVC
Продолжительность : 1 ч. 11 м.
Битрейт : 2250 Кбит/сек
Ширина : 718 пикселей
Высота : 574 пикселя
Соотношение сторон : 4:3
Режим частоты кадров : Постоянный
Частота кадров : 25,000 кадров/сек
Цветовое пространство : YUV
Субдискретизация насыщенности : 4:2:0
Битовая глубина : 8 бит
Тип развёртки : Прогрессивная
Бит/(Пиксели*Кадры) : 0.218
Размер потока : 1,10 Гбайт (90%)
Библиотека кодирования : x264 core 130 r2273 b3065e6
Настройки программы : cabac=1 / ref=15 / deblock=1:-2:-2 / analyse=0x3:0x133 / me=umh / subme=10 / psy=1 / psy_rd=1.05:0.15 / mixed_ref=1 / me_range=32 / chroma_me=1 / trellis=2 / 8x8dct=1 / cqm=0 / deadzone=21,11 / fast_pskip=0 / chroma_qp_offset=-3 / threads=12 / lookahead_threads=2 / sliced_threads=0 / nr=0 / decimate=0 / interlaced=0 / bluray_compat=0 / constrained_intra=0 / bframes=8 / b_pyramid=2 / b_adapt=2 / b_bias=0 / direct=3 / weightb=1 / open_gop=0 / weightp=2 / keyint=250 / keyint_min=25 / scenecut=40 / intra_refresh=0 / rc=2pass / mbtree=0 / bitrate=2250 / ratetol=1.0 / qcomp=0.60 / qpmin=0 / qpmax=39 / qpstep=4 / cplxblur=20.0 / qblur=0.5 / ip_ratio=1.40 / pb_ratio=1.30 / aq=1:1.00
Язык : English
Default : Да
Forced : Нет
Основные цвета : BT.601 PAL
Характеристики трансфера : BT.470 System B, BT.470 System G
Коэффициенты матрицы : BT.601
Аудио
Идентификатор : 2
Формат : AC-3
Формат/Информация : Audio Coding 3
Расширение режима : CM (complete main)
Параметр Endianness формата : Big
Идентификатор кодека : A_AC3
Продолжительность : 1 ч. 11 м.
Вид битрейта : Постоянный
Битрейт : 192 Кбит/сек
Каналы : 2 канала
Расположение каналов : Front: L R
Частота : 48,0 КГц
Битовая глубина : 16 бит
Метод сжатия : С потерями
Размер потока : 98,6 Мбайт (8%)
Язык : Russian
Default : Да
Forced : Нет
[Профиль]  [ЛС] 
Похожие темы
Форум Тема Автор Размер
Отечественные сериалы Ветер в лицо [Серии:1-4 из 4] ( Николай Михайлов) (2014, мылорама, SATRip) anatolyi100 2,55 GB
Отечественные сериалы Казнокрады (серии 1 - 6 из 6) (Игорь Михайлусь) [2011 г., Художественно-Документальный, SATRip] Фунтик 3 GB
Отечественные сериалы Капля света [Серии: 1 - 4 из 4] (Николай Михайлов) (2009, мелодрама, DVDRip) anatolyi100 2,17 GB
Аудиокниги Михайлов Владимир - Цикл"Капитан Ульдемир" [Вячеслав Герасимов, 2012] Oldket 1,5 GB
Аудиокниги Прошкин Евгений,Овчинников Олег - "Контур боли"(S.T.A.L.K.E.R.) [Михаил Михайлов (Майк555), 2013] Oldket 545 MB
Аудиокниги Соловьев Сергей Михайлович - "История России с древнейших времен" [Леонтина Броцкая , Олег Исаев, 2006] Oldket 25,4 GB
Показать сообщения:    
Ответить на тему

Текущее время: 10-Дек 17:36

Часовой пояс: UTC + 3



Вы не можете начинать темы
Вы не можете отвечать на сообщения
Вы не можете редактировать свои сообщения
Вы не можете удалять свои сообщения
Вы не можете голосовать в опросах
Вы не можете прикреплять файлы к сообщениям
Вы не можете скачивать файлы