Аномалия / The Anomaly (2014) BDRip [1080p]

Ответить на тему
Статистика раздачи [Обновить пиров]
Скачал: [ 1 ]
 
   
 
 
Автор
Сообщение

Mr.Weegley ®

Стаж: 5 лет 5 месяцев

Сообщений: 99

Откуда: Пятаки

Создавать темы 29-Сен-2015 11:48

[Цитировать] 

Аномалия / The Anomaly (2014) BDRip- Год выпуска: 2014
Производство: Великобритания / Unstoppable Entertainment
Жанр: Фантастика, Боевик
Режиссер: Ноэль Кларк
Актеры: Ноэль Кларк, Иэн Сомерхолдер, Брайан Кокс, Алексис Нэп, Люк Хемсворт, Ниал Грег Фултон, Майкл Биспинг, Али Кук, Арт Паркинсон
Описание фильма:
Бывший солдат попадает в плен. Очнувшись, он узнает, что у него осталось всего несколько минут, чтобы понять, как он туда попал…
Перевод: Дублированный (R5)
Язык субтитров: Английский (SDH, Commentary)
Вид субтитров: Вшитые отключаемые

Дата мировой премьеры: 19 июня 2014
Дата российской премьеры: 6 ноября 2014, «Двадцатый Век Фокс СНГ»
Продолжительность: 01:36:38
Качество видео: BDRip
Видеокодек: MPEG-4 AVC/H.264
Битрейт видео: ~20,1 Мбит/сек
Размер кадра: 1920x816
Аудио 1: AC3, 384 kb/s (6 ch), 48 kHz - Русский
Аудио 2: AC3, 640 kb/s (6 ch), 48 kHz - Английский
Сэмпл: Скачать

MediaInfo

Format : Matroska
Format version : Version 4 / Version 2
File size : 14.6 GiB
Duration : 1h 36mn
Overall bit rate : 21.6 Mbps
Encoded date : UTC 2014-10-25 14:27:35
Writing application : mkvmerge v7.1.0 ('Good Love') 64bit built on Jul 27 2014 13:06:55
Writing library : libebml v1.3.0 + libmatroska v1.4.1
DURATION : 01:36:38.688000000
NUMBER_OF_FRAMES : 181209
NUMBER_OF_BYTES : 278337024
_STATISTICS_WRITING_APP : mkvmerge v7.1.0 ('Good Love') 64bit built on Jul 27 2014 13:06:55
_STATISTICS_WRITING_DATE_UTC : 2014-10-25 14:27:35
_STATISTICS_TAGS : BPS DURATION NUMBER_OF_FRAMES NUMBER_OF_BYTES
Video
ID : 1
Format : AVC
Format/Info : Advanced Video Codec
Format profile : [email protected]
Format settings, CABAC : Yes
Format settings, ReFrames : 5 frames
Codec ID : V_MPEG4/ISO/AVC
Duration : 1h 36mn
Bit rate : 20.1 Mbps
Width : 1 920 pixels
Height : 816 pixels
Display aspect ratio : 2.35:1
Frame rate mode : Constant
Frame rate : 23.976 fps
Color space : YUV
Chroma subsampling : 4:2:0
Bit depth : 8 bits
Scan type : Progressive
Bits/(Pixel*Frame) : 0.536
Stream size : 13.6 GiB (93%)
Writing library : x264 core 140 r2377 1ca7bb9
Encoding settings : cabac=1 / ref=5 / deblock=1:-3:-3 / analyse=0x3:0x133 / me=umh / subme=10 / psy=1 / psy_rd=1.05:0.00 / mixed_ref=1 / me_range=48 / chroma_me=1 / trellis=2 / 8x8dct=1 / cqm=0 / deadzone=21,11 / fast_pskip=0 / chroma_qp_offset=-2 / threads=12 / lookahead_threads=2 / sliced_threads=0 / nr=0 / decimate=0 / interlaced=0 / bluray_compat=0 / constrained_intra=0 / bframes=8 / b_pyramid=2 / b_adapt=2 / b_bias=0 / direct=3 / weightb=1 / open_gop=0 / weightp=2 / keyint=250 / keyint_min=23 / scenecut=40 / intra_refresh=0 / rc_lookahead=60 / rc=crf / mbtree=0 / crf=17.0 / qcomp=0.65 / qpmin=0 / qpmax=69 / qpstep=4 / vbv_maxrate=62500 / vbv_bufsize=78125 / crf_max=0.0 / nal_hrd=none / filler=0 / ip_ratio=1.30 / pb_ratio=1.20 / aq=1:0.75
Language : English
Default : Yes
Forced : No
DURATION : 01:36:38.710000000
NUMBER_OF_FRAMES : 139030
NUMBER_OF_BYTES : 14906761682
_STATISTICS_WRITING_APP : mkvmerge v7.1.0 ('Good Love') 64bit built on Jul 27 2014 13:06:55
_STATISTICS_WRITING_DATE_UTC : 2014-10-25 14:27:35
_STATISTICS_TAGS : BPS DURATION NUMBER_OF_FRAMES NUMBER_OF_BYTES
Audio #1
ID : 2
Format : AC-3
Format/Info : Audio Coding 3
Mode extension : CM (complete main)
Format settings, Endianness : Big
Codec ID : A_AC3
Duration : 1h 36mn
Bit rate mode : Constant
Bit rate : 384 Kbps
Channel(s) : 6 channels
Channel positions : Front: L C R, Side: L R, LFE
Sampling rate : 48.0 KHz
Bit depth : 16 bits
Compression mode : Lossy
Stream size : 265 MiB (2%)
Language : Russian
Default : Yes
Forced : No
Audio #2
ID : 3
Format : AC-3
Format/Info : Audio Coding 3
Mode extension : CM (complete main)
Format settings, Endianness : Big
Codec ID : A_AC3
Duration : 1h 36mn
Bit rate mode : Constant
Bit rate : 640 Kbps
Channel(s) : 6 channels
Channel positions : Front: L C R, Side: L R, LFE
Sampling rate : 48.0 KHz
Bit depth : 16 bits
Compression mode : Lossy
Stream size : 442 MiB (3%)
Language : English
Default : No
Forced : No
Text #1
ID : 4
Format : UTF-8
Codec ID : S_TEXT/UTF8
Codec ID/Info : UTF-8 Plain Text
Title : SDH
Language : English
Default : No
Forced : No
Text #2
ID : 5
Format : UTF-8
Codec ID : S_TEXT/UTF8
Codec ID/Info : UTF-8 Plain Text
Title : Commentary with director Noel Clarke
Language : English
Default : No
Forced : No
Menu
00:00:00.000 : en:00:00:00.000
00:08:58.955 : en:00:08:58.955
00:16:34.535 : en:00:16:34.535
00:23:41.712 : en:00:23:41.712
00:31:54.663 : en:00:31:54.663
00:40:54.577 : en:00:40:54.577
00:51:02.059 : en:00:51:02.059
00:59:28.148 : en:00:59:28.148
01:05:38.768 : en:01:05:38.768
01:14:22.458 : en:01:14:22.458
01:22:12.386 : en:01:22:12.386
01:28:36.144 : en:01:28:36.144
Скриншоты:
[Профиль]  [ЛС] 
Показать сообщения:    
Ответить на тему

Текущее время: 04-Дек 09:06

Часовой пояс: UTC + 3



Вы не можете начинать темы
Вы не можете отвечать на сообщения
Вы не можете редактировать свои сообщения
Вы не можете удалять свои сообщения
Вы не можете голосовать в опросах
Вы не можете прикреплять файлы к сообщениям
Вы не можете скачивать файлы