Discovery. Аэропорт изнутри / X-Ray Mega Airport (2015) HDTVRip

Ответить на тему
Статистика раздачи [Обновить пиров]
Нет
 
   
 
 
Автор
Сообщение

Mandarin4ik ®

Стаж: 1 год 4 месяца

Сообщений: 9

Создавать темы 03-Окт-2015 14:21

[Цитировать] 

Аэропорт изнутри / X-Ray Mega Airport

Страна: Соединенное Королевство
Жанр: Документальный,Телепередача
Год выпуска: 2015
Продолжительность: Серия по ~00:44:00
Описание: Новая программа Discovery Channel дает зрителям пропуск в святая святых современного аэропорта – в те места, где обычно висит табличка «только для персонала». На примере аэропорта Франкфурта вы увидите, как устроен современный авиаузел и что позволяет ему работать как часы, регулируя потоки миллионов пассажиров и тысяч самолетов.
Программа расскажет о том, как обеспечивается безопасность на всех этапах – от входа в здание до момента, когда самолет приземляется в пункте назначения. Кроме того, вы узнаете, как работает автоматическая система транспортировки багажа длиной 81 километр, и как выяснить, где находится любой из 140 000 чемоданов в конкретный момент. На компьютере будет смоделирован взлет самолета при встречном ветре, а также мягкая посадка 200-тонного лайнера. Помимо этого вы подниметесь на борт гигантского Airbus A380, простой которого обходится авиакомпаниям в миллион с лишним долларов в день. Откройте для себя огромный город, который живет по строжайшему распорядку, несмотря на царящий на первый взгляд хаос – совершите уникальное авиапутешествие вместе с программой «Аэропорт изнутри»!
Качество видео: HDTVRip
Перевод: Одноголосый закадровый, профессиональный
Видео: Xvid, 720x400, ~1529 Кбит/сек
Аудио: AC3, 2 ch, 192 Кбит/сек
Время раздачи: до 3 скачавших с 14.00-16.00 МСК

Список серий:

01. Гонка со временем
02. Полный контроль
03. Аэропорт не спит
04. Перекрёстки мира
05. Без права на ошибку

Mediainfo:

Общее
Формат : AVI
Формат/Информация : Audio Video Interleave
Размер файла : 545 Мбайт
Продолжительность : 44 м.
Общий поток : 1733 Кбит/сек
Программа кодирования : VirtualDubMod 1.5.10.3 | www.virtualdub-fr.org || (build 2550/release)
Библиотека кодирования : VirtualDubMod build 2550/release
Видео
Идентификатор : 0
Формат : MPEG-4 Visual
Профиль формата : Advanced [email protected]
Параметр BVOP формата : 1
Параметр QPel формата : Нет
Параметр GMC формата : Без точки перехода
Параметр матрицы формата : Default (H.263)
Идентификатор кодека : XVID
Идентификатор кодека/Подсказка : XviD
Продолжительность : 44 м.
Битрейт : 1529 Кбит/сек
Ширина : 720 пикселей
Высота : 400 пикселей
Соотношение сторон : 16:9
Частота кадров : 30,000 кадров/сек
Цветовое пространство : YUV
Субдискретизация насыщенности : 4:2:0
Битовая глубина : 8 бит
Тип развёртки : Прогрессивная
Метод сжатия : С потерями
Бит/(Пиксели*Кадры) : 0.177
Размер потока : 481 Мбайт (88%)
Библиотека кодирования : XviD 1.2.1 (UTC 2008-12-04)
Аудио
Идентификатор : 1
Формат : AC-3
Формат/Информация : Audio Coding 3
Расширение режима : CM (complete main)
Параметр Endianness формата : Big
Идентификатор кодека : 2000
Продолжительность : 44 м.
Вид битрейта : Постоянный
Битрейт : 192 Кбит/сек
Каналы : 2 канала
Расположение каналов : Front: L R
Частота : 48,0 КГц
Метод сжатия : С потерями
Размер потока : 60,4 Мбайт (11%)
Выравнивание : Разделение по промежуткам
Продолжительность промежутка : 33 мс. (1,00 видеокадр)
Время предзагрузки промежутка : 500 мс.


Последний раз редактировалось: Mandarin4ik (2015-10-03 15:46), всего редактировалось 5 раз(а)
[Профиль]  [ЛС] 

Тоха™

Стаж: 8 лет 7 месяцев

Сообщений: 741

Откуда: N44°35'16.29" E033°30'28.48"

Создавать темы 03-Окт-2015 14:44 (спустя 23 минуты)

[Цитировать] 

скрины?
[Профиль]  [ЛС] 

Mandarin4ik ®

Стаж: 1 год 4 месяца

Сообщений: 9

Создавать темы 03-Окт-2015 14:50 (спустя 6 минут)

[Цитировать] 

723937скрины?
добавил Image020
[Профиль]  [ЛС] 

Тоха™

Стаж: 8 лет 7 месяцев

Сообщений: 741

Откуда: N44°35'16.29" E033°30'28.48"

Создавать темы 03-Окт-2015 15:10 (спустя 19 минут)

[Цитировать] 

Mandarin4ik, советую тут про скрины,спойлеры и прочее почитать,и применять на практике.
http://sevtracker.org/viewforum.php?f=43
[Профиль]  [ЛС] 
Похожие темы
Форум Тема Автор Размер
Discovery Discovery. Разрушители легенд / Mythbusters (1-16 сезон: 1-250 серий из 250, 19 спецвыпусков) (Элис Дэллоу, Табита Лентл) [2003-2016 г., Документальный, научно-познавательный, TVRip, SATRip] mihis 149,8 GB
Показать сообщения:    
Ответить на тему

Текущее время: 06-Дек 19:01

Часовой пояс: UTC + 3



Вы не можете начинать темы
Вы не можете отвечать на сообщения
Вы не можете редактировать свои сообщения
Вы не можете удалять свои сообщения
Вы не можете голосовать в опросах
Вы не можете прикреплять файлы к сообщениям
Вы не можете скачивать файлы