Ментовские войны 9 (1-16 серия из 16) (Денис Скворцов) [2015 г., Боевик, детектив, SATRip]

Ответить на тему
Статистика раздачи [Обновить пиров]
Скачал: [ 5 ]
 
   
 
 
Автор
Сообщение

mihis ®

Стаж: 2 года 1 месяц

Сообщений: 221

Создавать темы 05-Окт-2015 16:12

[Цитировать] 

Ментовские войны 916 серий Год выпуска: 2015
Страна: Россия, Студия Панорама
Жанр: Боевик, детектив
Продолжительность: 16 x ~ 00:45:00
Перевод: Не требуется
Cубтитры: нет
Режиссер: Денис Скворцов
В ролях: Александр Устюгов, Дмитрий Быковский-Ромашов, Всеволод Цурило, Мария Иванова (IV), Ольга Павловец, Андрей Родимов, Роберт Студеновский, Дмитрий Мухамадеев, Сергей Евсеев, Андрей Кузнецов, Дмитрий Лебедев (III), Антон Гриценко, Денис Баканов, Михаил Новицкий, Максим Матвеев (II), Сергей Хомченков, Сергей Выборнов, Владимир Маслаков, Ксения Алексеева, Андрей Полищук, Сергей Гарусов, Виктор Янишевский, Стэнли Красовицки, Сергей Стукалов, Мария Фефилова, Антон Успенский, Антон Быстров, Константин Китанин, Рустам Насыров, Андрей Шаповал, Андрей Аладьин, Гавриил Федотов, Герасим Архипов, Елизавета Ковалева, Александр Лисицын, Сергей Лысов, Андрей Карако, Дмитрий Олейник, Никита Барсуков
Описание: Подполковник Роман Шилов возвращается в строй! Теперь он — начальник регионального спецотдела МВД по раскрытию особо тяжких преступлений. Его личная война с коррупцией в рядах спецслужб переходит на новый уровень. Многим его возвращение не дает покоя. Чтобы понять, кому именно, и раскрыть истинные причины происходящего, он вступает в противоборство с мощной группировкой, метко названной его коллегой «синдикатом киллеров». На новом посту у Романа карт-бланш: теперь он сам формирует штат своего подразделения и получает большую свободу оперативных действий под руководством непосредственного начальника – генерала Рощина. Воспользовавшись расположением генерала, Шилов возвращает на службу Джексона, а также добивается перевода в свое подчинение Павла Арнаутова и Светланы Морозовой.

Качество: SATRip
Формат: AVI
Видео кодек: XviD
Аудио кодек: AC3
Видео: 720x400 (1.80:1), 25 fps, XviD MPEG-4 ~1815 kbps avg, 0.25 bit/pixel
Аудио: 48 kHz, AC3 Dolby Digital, 2/0 (L,R) ch, ~192.00 kbps avg

MI

Общее
Полное имя : G:VideoМентовские войны 9 SATRipСерия 01.avi
Формат : AVI
Формат/Информация : Audio Video Interleave
Размер файла : 643 Мбайт
Продолжительность : 44 м.
Общий поток : 2013 Кбит/сек
Программа кодирования : TMPGEnc Video Mastering Works 5 Version. 5.0.6.38
Библиотека кодирования : TMPGEnc Video Mastering Works 5 Version. 5.0.6.38
Видео
Идентификатор : 0
Формат : MPEG-4 Visual
Профиль формата : Advanced [email protected]
Параметр BVOP формата : 2
Параметр QPel формата : Нет
Параметр GMC формата : Без точки перехода
Параметр матрицы формата : Default (MPEG)
Идентификатор кодека : XVID
Идентификатор кодека/Подсказка : XviD
Продолжительность : 44 м.
Битрейт : 1813 Кбит/сек
Ширина : 720 пикселей
Высота : 400 пикселей
Соотношение сторон : 16:9
Частота кадров : 25,000 кадров/сек
Цветовое пространство : YUV
Субдискретизация насыщенности : 4:2:0
Битовая глубина : 8 бит
Тип развёртки : Прогрессивная
Метод сжатия : С потерями
Бит/(Пиксели*Кадры) : 0.252
Размер потока : 580 Мбайт (90%)
Библиотека кодирования : XviD 73
Аудио
Идентификатор : 1
Формат : AC-3
Формат/Информация : Audio Coding 3
Расширение режима : CM (complete main)
Параметр Endianness формата : Big
Идентификатор кодека : 2000
Продолжительность : 44 м.
Вид битрейта : Постоянный
Битрейт : 192 Кбит/сек
Каналы : 2 канала
Расположение каналов : Front: L R
Частота : 48,0 КГц
Битовая глубина : 16 бит
Метод сжатия : С потерями
Размер потока : 61,4 Мбайт (10%)
Выравнивание : Соединение по промежуткам
Продолжительность промежутка : 240 мс. (6,00 видеокадров)
Время предзагрузки промежутка : 224 мс.


Последний раз редактировалось: mihis (2016-10-17 13:01), всего редактировалось 14 раз(а)
[Профиль]  [ЛС] 

Олег_SevStar

Стаж: 7 лет 8 месяцев

Сообщений: 2425

Откуда: из Союза...

Создавать темы 05-Окт-2015 16:25 (спустя 13 минут)

[Цитировать] 

Спасибо за продолжение!!!
[Профиль]  [ЛС] 

mihis ®

Стаж: 2 года 1 месяц

Сообщений: 221

Создавать темы 05-Окт-2015 17:34 (спустя 1 час 9 минут)

[Цитировать] 

Замена 1 серии, добавлена 2 серия
[Профиль]  [ЛС] 

anatolyi100

Стаж: 6 лет 2 месяца

Сообщений: 826

Откуда: г.герой Севастополь

Создавать темы 06-Окт-2015 15:13 (спустя 21 час)

[Цитировать] 

Спасибо! Это надо смотреть сразу за один раз.....Будем потерпеть...
[Профиль]  [ЛС] 

mihis ®

Стаж: 2 года 1 месяц

Сообщений: 221

Создавать темы 06-Окт-2015 16:10 (спустя 57 минут)

[Цитировать] 

добавлена 3-4 серия
[Профиль]  [ЛС] 

mihis ®

Стаж: 2 года 1 месяц

Сообщений: 221

Создавать темы 07-Окт-2015 16:03 (спустя 23 часа)

[Цитировать] 

добавлена 5-6 серия
[Профиль]  [ЛС] 

mihis ®

Стаж: 2 года 1 месяц

Сообщений: 221

Создавать темы 08-Окт-2015 16:18 (спустя 1 день)

[Цитировать] 

Замена 5-6 серии, добавлена 7-8 серия
[Профиль]  [ЛС] 

mihis ®

Стаж: 2 года 1 месяц

Сообщений: 221

Создавать темы 12-Окт-2015 16:15 (спустя 3 дня)

[Цитировать] 

добавлена 9-10 серия
[Профиль]  [ЛС] 

mihis ®

Стаж: 2 года 1 месяц

Сообщений: 221

Создавать темы 13-Окт-2015 17:59 (спустя 1 день 1 час)

[Цитировать] 

Замена 8-9 серии, добавлена 11-12 серия
[Профиль]  [ЛС] 

mihis ®

Стаж: 2 года 1 месяц

Сообщений: 221

Создавать темы 14-Окт-2015 17:39 (спустя 23 часа)

[Цитировать] 

добавлена 13-14 серия
[Профиль]  [ЛС] 

mihis ®

Стаж: 2 года 1 месяц

Сообщений: 221

Создавать темы 15-Окт-2015 17:24 (спустя 23 часа)

[Цитировать] 

добавлена 15-16 серия
[Профиль]  [ЛС] 

anatolyi100

Стаж: 6 лет 2 месяца

Сообщений: 826

Откуда: г.герой Севастополь

Создавать темы 15-Окт-2015 20:00 (спустя 2 часа 36 минут)

[Цитировать] 

Ещё раз СПАСИБА! Слабенький и кончился фильм как-то не совсем правильно....Наверное и 10-й будет
[Профиль]  [ЛС] 
Похожие темы
Форум Тема Автор Размер
Книги 100 аргументов против штрафов ГАИ mmaximus 87 MB
Отечественные сериалы Ментовские войны (Полная Коллекция) (1-10 сезоны: 148 серий из 148 + Эпилог + 4 фильма) (Егор Абросимов, Павел Мальков, Денис Скворцов...) [2005-2016 г., Детектив, криминал SATRip,WEB-DLRip] mihis 88,84 GB
Отечественные сериалы Ментовские войны / Сезон: 8 / Серии: 1-16 из 16 (Денис Скворцов) [2014, Боевик, детектив, криминал, SATRip] Serega624 9,2 GB
Отечественные сериалы Ментовские войны 10 (1-16 серии из 16) (Денис Скворцов) [2016 г., Боевик, детектив, SATRip] mihis 9,93 GB
Показать сообщения:    
Ответить на тему

Текущее время: 07-Дек 00:46

Часовой пояс: UTC + 3



Вы не можете начинать темы
Вы не можете отвечать на сообщения
Вы не можете редактировать свои сообщения
Вы не можете удалять свои сообщения
Вы не можете голосовать в опросах
Вы не можете прикреплять файлы к сообщениям
Вы не можете скачивать файлы