Дракула в 3Д / Dracula 3D (Дарио Ардженто / Dario Argento) [2012, Ужасы, Триллер, Мелодрама, BDrip, 1080p] OverUnder / Вертикальная стереопара

Ответить на тему
Статистика раздачи [Обновить пиров]
Нет
 
   
 
 
Автор
Сообщение

Создавать темы 14-Окт-2015 17:35

Дракула / Dracula
Год выпуска: 2012
Страна: Италия, Франция, Испания
Студия: Bolero Film, Enrique Cerezo
Жанр: Ужасы, Триллер, Мелодрама
Продолжительность: 01:50:01
Перевод: Профессиональный многоголосый закадровый(Лицензия R5)
Русские субтитры: нет
Режиссер на русском: Дарио Ардженто
Режиссер на английском: Dario Argento
В ролях: Dracula - Томас Кречманн
Mina Murray / Harker - Марта Гастини
Lucy - Азия Ардженто
Abraham Van Helsing - Рутгер Хауэр
Johnathan Harker - Унакс Угальде
Tania - Мириам Джованелли
Inga - Морган Слемп
Jarmila - Мария Кристина Хеллер
Andrej - Аугусто Дзукки
Zoran - Джузеппе Ло Консоле
Janek - Риккардо Чиконья
R. M. Renfield - Джованни Франзони
Описание: Трансильвания, 1893 год. Молодой библиотекарь Джонатан Харкер прибывает в деревню Пассо Борго, нанявшись на работу к местному аристократу графу Дракуле. Познакомившись со своим загадочным хозяином, Джонатан вскоре узнает истинную натуру графа и понимает, в какой опасности находится он сам и его жена Мина. Одни за другим вокруг таинственно погибают люди. Кажется, только Авраам ван Хельсинг, уже встречавшийся на пути графа, способен изменить их печальную участь.
Сэмпл: http://sendfile.su/1124765
Качество: BDrip
Контейнер: MKV
Формат 3D: OverUnder / Вертикальная стереопара
Порядок ракурсов: левый ракурс первый
Видео кодек: x264
Аудио кодек: AC3
Видео: AVC / [email protected] / 23,976 fps / 1920х1636 / 19,5 Mbps
Аудио: Русский / AC3 / 48 KHz / 5.1 ch / 448 Kbps (Лицензия R5)
Аудио 2: Английский / AC3 / 48 KHz / 5.1 ch / 448 Kbps
Релиз группы: ВНИМАНИЕ ! На встроенных ТВ-плейерах работать не будет!!!
Железные плееры на которых воспроизводятся полные стереопары:Popcorn C-200 , Dune HD Smart D1 , Dune HD DUO , Dune HD Smart H1 , Dune HD Smart B1 , Dune HD Max , Dune HD TV-303D , Dune HD Base 3D
03.06.2015. Релиз обновлён русская звуковая дорога заменена на лицензию.
Желающие, скачайте заново торрент-файл.

MediaInfo

Общее
Уникальный идентификатор : 196697342149825793542733253846502051985 (0x93FA87B620455E8F9804AF726F499091)
Полное имя : E:\закачки\Dracula.Rip by SeRoGa00.mkv
Формат : Matroska
Версия формата : Version 2
Размер файла : 16,0 Гбайт
Продолжительность : 1 ч. 50 м.
Общий поток : 20,9 Мбит/сек
Дата кодирования : UTC 2015-06-03 18:12:19
Программа кодирования : mkvmerge v3.4.0 ('Rapunzel') сборка от May 15 2010 09:38:20
Библиотека кодирования : libebml v0.8.0 + libmatroska v0.9.0
Видео
Идентификатор : 1
Формат : AVC
Формат/Информация : Advanced Video Codec
Профиль формата : [email protected]
Параметр CABAC формата : Да
Параметр ReFrames формата : 4 кадра
Идентификатор кодека : V_MPEG4/ISO/AVC
Продолжительность : 1 ч. 50 м.
Битрейт : 19,6 Мбит/сек
Ширина : 1920 пикселей
Высота : 1636 пикселей
Соотношение сторон : 1,174
Частота кадров : 23,976 кадра/сек
Цветовое пространство : YUV
Субдискретизация насыщенности : 4:2:0
Битовая глубина : 8 бит
Тип развёртки : Прогрессивная
Бит/(Пиксели*Кадры) : 0.260
Размер потока : 15,0 Гбайт (94%)
Заголовок : Rip by SeRoGa00
Библиотека кодирования : x264 core 128 r2216kMod 198a7ea
Настройки программы : cabac=1 / ref=4 / deblock=1:-3:-3 / analyse=0x3:0x113 / me=umh / subme=9 / psy=1 / fade_compensate=0.00 / psy_rd=1.00:0.15 / mixed_ref=1 / me_range=16 / chroma_me=1 / trellis=2 / 8x8dct=1 / cqm=0 / deadzone=21,11 / fast_pskip=1 / chroma_qp_offset=-3 / threads=9 / lookahead_threads=1 / sliced_threads=0 / nr=0 / decimate=1 / interlaced=0 / bluray_compat=0 / constrained_intra=0 / bframes=6 / b_pyramid=2 / b_adapt=2 / b_bias=0 / direct=3 / weightb=1 / open_gop=0 / weightp=2 / keyint=250 / keyint_min=23 / scenecut=40 / intra_refresh=0 / rc_lookahead=60 / rc=crf / mbtree=1 / crf=18.0000 / qcomp=0.60 / qpmin=10 / qpmax=69 / qpstep=4 / vbv_maxrate=40000 / vbv_bufsize=40000 / crf_max=0.0 / nal_hrd=none / ip_ratio=1.40 / aq=1:1.00
Язык : English
Default : Да
Forced : Нет
Аудио #1
Идентификатор : 2
Формат : AC-3
Формат/Информация : Audio Coding 3
Расширение режима : CM (complete main)
Параметр Endianness формата : Big
Идентификатор кодека : A_AC3
Продолжительность : 1 ч. 50 м.
Вид битрейта : Постоянный
Битрейт : 448 Кбит/сек
Каналы : 6 каналов
Расположение каналов : Front: L C R, Side: L R, LFE
Частота : 48,0 КГц
Битовая глубина : 16 бит
Метод сжатия : С потерями
Размер потока : 353 Мбайт (2%)
Default : Нет
Forced : Нет
Аудио #2
Идентификатор : 3
Формат : AC-3
Формат/Информация : Audio Coding 3
Расширение режима : CM (complete main)
Параметр Endianness формата : Big
Идентификатор кодека : A_AC3
Продолжительность : 1 ч. 50 м.
Вид битрейта : Постоянный
Битрейт : 448 Кбит/сек
Каналы : 6 каналов
Расположение каналов : Front: L C R, Side: L R, LFE
Частота : 48,0 КГц
Битовая глубина : 16 бит
Метод сжатия : С потерями
Размер потока : 353 Мбайт (2%)
Язык : English
Default : Да
Forced : Нет

Скриншоты


 
Похожие темы
Форум Тема Автор Размер
Зарубежное кино Дракула / Dracula Untold (Гари Шор) (2014, ужасы, фэнтези, боевик, драма, военный, WEB-DL 720p) anatolyi100 2,87 GB
3D/Stereo фильмы Дракула 3D в 3Д / Dracula 3D (Дарио Ардженто / Dario Argento) [2012, Ужасы, Триллер, Мелодрама, BDrip-AVC] Half OverUnder / Вертикальная анаморфная стереопара bot 10,74 GB
Показать сообщения:    
Ответить на тему

Текущее время: 06-Дек 19:02

Часовой пояс: UTC + 3



Вы не можете начинать темы
Вы не можете отвечать на сообщения
Вы не можете редактировать свои сообщения
Вы не можете удалять свои сообщения
Вы не можете голосовать в опросах
Вы не можете прикреплять файлы к сообщениям
Вы не можете скачивать файлы