Становление легенды в 3Д / Huang feihong zhi yingxiong you meng / Rise of the Legend 3D (Сянь-ян Чоу / Hsien-yang Chou) [2014, Боевик, Драма, Биография, Боевые искусства, BDrip-AVC] DVO, Half OverUnder / Вертикальная анаморфная стереопара

Ответить на тему
Статистика раздачи [Обновить пиров]
Нет
 
   
 
 
Автор
Сообщение

Создавать темы 14-Окт-2015 17:36

Становление легенды
Huang feihong zhi yingxiong you meng
Rise of the Legend

Год выпуска: 2014
Страна: Гонконг, Китай (EDKO Films Ltd., Irresistible Alpha Ltd., Universal Pictures International, VfxNova Digital Productions Ltd., BDI Films Inc.)
Жанр: Боевик, Драма, Биография, Боевые искусства
Продолжительность: 02:11:28
Перевод: Любительский двухголосый закадровый - Green Tea (Дмитрий Познанский и Ольга Гринтиева; перевод - Алексей Хорошавин)
Режиссер: Сянь-ян Чоу / Hsien-yang Chou-Роли исполняли:
........... ........... ...........
Master Lui - Саммо Кам-Бо Хунг
Fei - Эдди Пэн
Chun - Luodan Wang
Fiery - Цзин Божань
Wu Long - Цзинь Чжан
Big Tooth - Чо-Лам Вонг
Foon - Куин Жунжи
Black Crow - Байрон Манн
Wing - Gao Tai-Yu
Fei's Father - Тони Люн Ка Фай
Orchid - Анджела Бейби
-Описание: Этот фильм рассказывает о самом начале пути Вон Фэйхуна. Его, молодого и смелого бойца, замечает главарь одной из двух крупнейших банд, контролирующих власть в провинции ГуанДун. Босс предлагает юноше вступить в его банду, однако, он не знает, что этим лишь помогает Вон Фэйхуну осуществить его план. Много лет назад членами этой банды был убит отец мастера, и он поклялся во что бы то ни стало отомстить.-Доп. инфо: Центр русской дороги получен чередованием выделенных голосов русской озвучки (с правого канала отсюда) с звуками центра оригинальной дороги.
За любезно предоставленный исходный BD 3D большое спасибо пользователю 119905346!-Премьера (мир): 14 ноября 2014
. .
-Качество: BDRip (by Ash61)
Контейнер: MKV
Формат 3D: Half OverUnder / Вертикальная анаморфная стереопара
Порядок ракурсов: левый ракурс первый-Видео: AVC / 23,976 fps / 1920х1080p / 19.9 Mbps
Аудио:
#1 - Русский / AC3 / 48 KHz / 5.1 ch / 640 Kbps (DVO - Green Tea) [редактирование Ash61]
#2 - Китайский / AC3 / 48 KHz / 5.1 ch / 640 Kbps (Original - BD 3D)
Субтитры: Внешние (SRT ANSI) English Full

MediaInfo

General
Unique ID : 185344039953069199144517917765938531606 (0x8B6FF6B227B89D69A49002CCD1414D16)
Complete name : E:\RiseOfTheLegend(2014)3D-halfOU(Ash61)(23.976fps)VO-5.1\RiseOfTheLegend(2014)3D-halfOU(Ash61)(23.976fps)VO-5.1.mkv
Format : Matroska
Format version : Version 2
File size : 19.9 GiB
Duration : 2h 11mn
Overall bit rate : 21.6 Mbps
Movie name : Становление легенды / Rise of the Legend / Huang feihong zhi yingxiong you meng (2014) 3D
Encoded date : UTC 2015-04-27 15:19:25
Writing application : mkvmerge v5.8.0 ('No Sleep / Pillow') built on Sep 2 2012 15:37:04
Writing library : libebml v1.2.3 + libmatroska v1.3.0
Video
ID : 1
Format : AVC
Format/Info : Advanced Video Codec
Format profile : [email protected]
Format settings, CABAC : Yes
Format settings, ReFrames : 4 frames
Codec ID : V_MPEG4/ISO/AVC
Duration : 2h 11mn
Bit rate : 19.9 Mbps
Width : 1 920 pixels
Height : 1 080 pixels
Display aspect ratio : 16:9
Frame rate mode : Constant
Frame rate : 23.976 fps
Color space : YUV
Chroma subsampling : 4:2:0
Bit depth : 8 bits
Scan type : Progressive
Bits/(Pixel*Frame) : 0.400
Stream size : 18.3 GiB (92%)
Title : BDRip by Ash61
Writing library : x264 core 138 r2358 9e941d1
Encoding settings : cabac=1 / ref=4 / deblock=1:-3:-3 / analyse=0x3:0x113 / me=umh / subme=10 / psy=1 / psy_rd=1.00:0.00 / mixed_ref=1 / me_range=32 / chroma_me=1 / trellis=2 / 8x8dct=1 / cqm=0 / deadzone=21,11 / fast_pskip=1 / chroma_qp_offset=-2 / threads=12 / lookahead_threads=3 / sliced_threads=0 / nr=0 / decimate=1 / interlaced=0 / bluray_compat=0 / constrained_intra=0 / bframes=11 / b_pyramid=2 / b_adapt=2 / b_bias=0 / direct=3 / weightb=1 / open_gop=0 / weightp=2 / keyint=250 / keyint_min=23 / scenecut=40 / intra_refresh=0 / rc_lookahead=60 / rc=crf / mbtree=1 / crf=16.0 / qcomp=0.70 / qpmin=10 / qpmax=51 / qpstep=4 / vbv_maxrate=40000 / vbv_bufsize=30000 / crf_max=0.0 / nal_hrd=none / frame-packing=4 / ip_ratio=1.40 / aq=1:0.70
Language : Chinese
Default : Yes
Forced : No
Audio #1
ID : 2
Format : AC-3
Format/Info : Audio Coding 3
Mode extension : CM (complete main)
Format settings, Endianness : Big
Codec ID : A_AC3
Duration : 2h 11mn
Bit rate mode : Constant
Bit rate : 640 Kbps
Channel(s) : 6 channels
Channel positions : Front: L C R, Side: L R, LFE
Sampling rate : 48.0 KHz
Bit depth : 16 bits
Compression mode : Lossy
Stream size : 602 MiB (3%)
Title : Любительский двухголосый закадровый - Green Tea (edition Ash61)
Language : Russian
Default : Yes
Forced : No
Audio #2
ID : 3
Format : AC-3
Format/Info : Audio Coding 3
Mode extension : CM (complete main)
Format settings, Endianness : Big
Codec ID : A_AC3
Duration : 2h 11mn
Bit rate mode : Constant
Bit rate : 640 Kbps
Channel(s) : 6 channels
Channel positions : Front: L C R, Side: L R, LFE
Sampling rate : 48.0 KHz
Bit depth : 16 bits
Compression mode : Lossy
Stream size : 602 MiB (3%)
Title : Original (Cantonese) - BD 3D
Language : Chinese
Default : No
Forced : No
Menu
00:00:00.000 : :1
00:10:03.311 : :2
00:22:13.582 : :3
00:33:47.651 : :4
00:45:05.286 : :5
00:56:06.321 : :6
01:09:14.650 : :7
01:16:52.983 : :8
01:28:59.543 : :9
01:38:15.056 : :10
01:51:28.974 : :11
02:00:51.619 : :12

Для оценки 3Д - Анимированные скрины















 
Показать сообщения:    
Ответить на тему

Текущее время: 09-Дек 12:36

Часовой пояс: UTC + 3



Вы не можете начинать темы
Вы не можете отвечать на сообщения
Вы не можете редактировать свои сообщения
Вы не можете удалять свои сообщения
Вы не можете голосовать в опросах
Вы не можете прикреплять файлы к сообщениям
Вы не можете скачивать файлы