Исход: Цари и боги в 3Д / Exodus: Gods and Kings 3D (Ридли Скотт / Ridley Scott) [2014, Боевик, Драма, Приключения, BDrip-AVC] Half OverUnder / Вертикальная анаморфная стереопара

Ответить на тему
Статистика раздачи [Обновить пиров]
Нет
 
   
 
 
Автор
Сообщение

Создавать темы 14-Окт-2015 17:36

Исход: Цари и боги
Exodus: Gods and Kings

Год выпуска: 2014
Страна: Великобритания, США, Испания (20th Century Fox, TSG Entertainment)
Жанр: Боевик, Драма, Приключения
Продолжительность: 2:30:20
Перевод: Профессиональные дублированные - Русский и Украинский (лицензия)
Режиссер: Ридли Скотт / Ridley Scott-Роли исполняли (дублировали):

Moses - Кристиан Бэйл (Василий Дахненко)
Ramses - Джоэл Эдгертон (Владимир Рыбальченко)
Seti - Джон Туртурро
Joshua - Аарон Пол
Viceroy Hegep - Бен Мендельсон (Пётр Иващенко)
Zipporah - Мария Вальверде (Анастасия Жаркова)
Tuya - Сигурни Уивер
Nun - Бен Кингсли
Bithia - Хиам Аббасс
Expert - Юэн Бремнер
High Priestess - Индира Варма
Nefertari - Голшифте Фарахани
Malak - Исаак Эндрюс
Commander Khyan - Дар Салим (Александр Гаврилин)
Aaron - Эндрю Тарбет (Сергей Чихачев)
Gershom - Хэл Хеветсон (Максим Чихачев)
-Описание: Ветхозаветная история о великом пророке Моисее и освобождении еврейского народа из египетского плена. Моисей появился на свет в те времена, когда фараон приказал убивать всех новорожденных мальчиков еврейского происхождения. Чтобы спасти его, мать положила малыша в корзину из тростника и отправила вниз по Нилу.
Ребенка нашла дочь фараона, которая усыновила его и растила рядом с Рамсесом — будущим фараоном. Много лет спустя, став мужчиной, Моисей бежит из Египта, а затем возвращается туда по велению Господа, чтобы избавить свой народ от оков рабства…

Знаете ли вы, что...

  • Фильм снят за 74 дня.
  • Джоэл Эдгертон узнал о том, что получил роль Рамзеса из поздравительных писем фанатов, которые следили за кастингом онлайн.
  • Оскар Айзек и Хавьер Бардем отклонили роль Рамзеса.

Ошибка в фильме

Моисей по колено заходит в море, чтобы достать со дна свой меч, и соответственно его одежда намокает. Когда он выходит, с одежды еще стекает вода, через одну смену кадров Моисей снова стоит полностью сухой.
Премьера: 3 декабря 2014 (1 января 2015)
Релиз на Blu-Ray (DVD) (Россия): 9 апреля 2015
Бюджет: $140 000 000
Кассовые сборы: $267 281 936

. .
-Качество: BDRip (by Ash61)
Контейнер: MKV
Формат 3D: Half OverUnder / Вертикальная анаморфная стереопара
Порядок ракурсов: левый ракурс первый-Видео: AVC / 23,976 fps / 1920х1080p / 11.4 Mbps
Аудио:
#1 - Русский / AC3 / 48 KHz / 5.1 ch / 640 Kbps (Дубляж - BD 2D)
#2 - Украинский / AC3 / 48 KHz / 5.1 ch / 448 Kbps (Дубляж - BD 2D)
#3 - Английский / AC3 / 48 KHz / 5.1 ch / 640 Kbps (Original - BD 3D)
Субтитры: (SRT)
Вшитые (softsub):
#1 - Русские Форсированные (включены по умолчанию)
#2 - Русские Полные
#3 - Русские Коментарии Ридли Скотта
#4 - Украинские Полные
#5 - English Full
#6 - English SDH
#7 - English Comments by Ridley Scott
Внешние (UTF- Cool:
#1 - Русские Форсированные (включены по умолчанию)

MediaInfo

General
Unique ID : 248335577075622341292836085994829225088 (0xBAD3B142165AE7C3ABEF2F0A32A99C80)
Complete name : E:\Exodus.GodsAndKings(2014)3D-halfOU(Ash61)\Exodus.GodsAndKings(2014)3D-halfOU(Ash61).mkv
Format : Matroska
Format version : Version 2
File size : 14.0 GiB
Duration : 2h 30mn
Overall bit rate : 13.4 Mbps
Movie name : Исход: Цари и боги / Exodus: Gods and Kings (2014) 3D
Encoded date : UTC 2015-04-02 15:47:41
Writing application : mkvmerge v5.8.0 ('No Sleep / Pillow') built on Sep 2 2012 15:37:04
Writing library : libebml v1.2.3 + libmatroska v1.3.0
Video
ID : 1
Format : AVC
Format/Info : Advanced Video Codec
Format profile : [email protected]
Format settings, CABAC : Yes
Format settings, ReFrames : 4 frames
Codec ID : V_MPEG4/ISO/AVC
Duration : 2h 30mn
Bit rate : 11.4 Mbps
Width : 1 920 pixels
Height : 1 080 pixels
Display aspect ratio : 16:9
Frame rate mode : Constant
Frame rate : 23.976 fps
Color space : YUV
Chroma subsampling : 4:2:0
Bit depth : 8 bits
Scan type : Progressive
Bits/(Pixel*Frame) : 0.229
Stream size : 11.9 GiB (85%)
Title : BDRip by Ash61
Writing library : x264 core 138 r2358 9e941d1
Encoding settings : cabac=1 / ref=4 / deblock=1:-3:-3 / analyse=0x3:0x113 / me=umh / subme=10 / psy=1 / psy_rd=1.00:0.00 / mixed_ref=1 / me_range=32 / chroma_me=1 / trellis=2 / 8x8dct=1 / cqm=0 / deadzone=21,11 / fast_pskip=1 / chroma_qp_offset=-2 / threads=12 / lookahead_threads=3 / sliced_threads=0 / nr=0 / decimate=1 / interlaced=0 / bluray_compat=0 / constrained_intra=0 / bframes=10 / b_pyramid=2 / b_adapt=2 / b_bias=0 / direct=3 / weightb=1 / open_gop=0 / weightp=2 / keyint=250 / keyint_min=23 / scenecut=40 / intra_refresh=0 / rc_lookahead=60 / rc=crf / mbtree=1 / crf=17.0 / qcomp=0.70 / qpmin=0 / qpmax=69 / qpstep=4 / vbv_maxrate=40000 / vbv_bufsize=30000 / crf_max=0.0 / nal_hrd=none / frame-packing=4 / ip_ratio=1.40 / aq=1:0.70
Language : English
Default : Yes
Forced : No
Audio #1
ID : 2
Format : AC-3
Format/Info : Audio Coding 3
Mode extension : CM (complete main)
Format settings, Endianness : Big
Codec ID : A_AC3
Duration : 2h 30mn
Bit rate mode : Constant
Bit rate : 640 Kbps
Channel(s) : 6 channels
Channel positions : Front: L C R, Side: L R, LFE
Sampling rate : 48.0 KHz
Bit depth : 16 bits
Compression mode : Lossy
Stream size : 688 MiB (5%)
Title : Дубляж - BD 2D
Language : Russian
Default : Yes
Forced : No
Audio #2
ID : 3
Format : AC-3
Format/Info : Audio Coding 3
Mode extension : CM (complete main)
Format settings, Endianness : Big
Codec ID : A_AC3
Duration : 2h 30mn
Bit rate mode : Constant
Bit rate : 448 Kbps
Channel(s) : 6 channels
Channel positions : Front: L C R, Side: L R, LFE
Sampling rate : 48.0 KHz
Bit depth : 16 bits
Compression mode : Lossy
Stream size : 482 MiB (3%)
Title : Дубляж - BD 2D
Language : Ukrainian
Default : No
Forced : No
Audio #3
ID : 4
Format : AC-3
Format/Info : Audio Coding 3
Mode extension : CM (complete main)
Format settings, Endianness : Big
Codec ID : A_AC3
Duration : 2h 30mn
Bit rate mode : Constant
Bit rate : 640 Kbps
Channel(s) : 6 channels
Channel positions : Front: L C R, Side: L R, LFE
Sampling rate : 48.0 KHz
Bit depth : 16 bits
Compression mode : Lossy
Stream size : 688 MiB (5%)
Title : Original - BD 3D
Language : English
Default : No
Forced : No
Text #1
ID : 5
Format : UTF-8
Codec ID : S_TEXT/UTF8
Codec ID/Info : UTF-8 Plain Text
Title : Форсированные
Language : Russian
Default : Yes
Forced : No
Text #2
ID : 6
Format : UTF-8
Codec ID : S_TEXT/UTF8
Codec ID/Info : UTF-8 Plain Text
Title : Полные
Language : Russian
Default : No
Forced : No
Text #3
ID : 7
Format : UTF-8
Codec ID : S_TEXT/UTF8
Codec ID/Info : UTF-8 Plain Text
Title : Коментарии Ридли Скотта
Language : Russian
Default : No
Forced : No
Text #4
ID : 8
Format : UTF-8
Codec ID : S_TEXT/UTF8
Codec ID/Info : UTF-8 Plain Text
Title : Полные
Language : Ukrainian
Default : No
Forced : No
Text #5
ID : 9
Format : UTF-8
Codec ID : S_TEXT/UTF8
Codec ID/Info : UTF-8 Plain Text
Title : Full
Language : English
Default : No
Forced : No
Text #6
ID : 10
Format : UTF-8
Codec ID : S_TEXT/UTF8
Codec ID/Info : UTF-8 Plain Text
Title : SDH
Language : English
Default : No
Forced : No
Text #7
ID : 11
Format : UTF-8
Codec ID : S_TEXT/UTF8
Codec ID/Info : UTF-8 Plain Text
Title : Comments by Ridley Scott
Language : English
Default : No
Forced : No
Menu
00:00:00.000 : :1
00:03:55.401 : :2
00:06:51.994 : :3
00:11:47.706 : :4
00:14:29.451 : :5
00:18:37.655 : :6
00:22:15.834 : :7
00:26:51.151 : :8
00:30:31.287 : :9
00:36:41.364 : :10
00:40:48.320 : :11
00:44:49.936 : :12
00:48:47.797 : :13
00:51:16.447 : :14
00:54:22.217 : :15
00:57:32.657 : :16
01:00:31.168 : :17
01:04:41.543 : :18
01:06:49.045 : :19
01:11:01.881 : :20
01:16:53.692 : :21
01:21:18.037 : :22
01:24:30.354 : :23
01:28:08.533 : :24
01:30:54.157 : :25
01:34:14.564 : :26
01:37:20.542 : :27
01:39:20.203 : :28
01:42:40.319 : :29
01:46:50.069 : :30
01:49:02.661 : :31
01:52:18.314 : :32
01:57:29.876 : :33
02:00:23.841 : :34
02:05:41.323 : :35
02:07:31.268 : :36
02:13:38.466 : :37
02:16:21.881 : :38
02:19:39.995 : :39
02:23:19.799 : :40

Для оценки 3Д - Анимированные скрины















2.04.2015. Релиз обновлён - русская и украинская дороги заменены на лицензию, подправлены, добавлены субтитры.
Желающие, скачайте заново торрент-файл.
 
Похожие темы
Форум Тема Автор Размер
HD Исход: Цари и боги / Exodus: Gods and Kings (2014) BDRip 1080p | Лицензия Lost_Mind 11,34 GB
Зарубежное кино Исход: Цари и боги / Exodus: Gods and Kings (2014) WEB-DL 720p | iTunes Тоха™ 4,89 GB
3D/Stereo фильмы Исход: Цари и боги в 3Д / Exodus: Gods and Kings 3D (Ридли Скотт / Ridley Scott) [2014, боевик, драма, приключения, BDRip-AVC] Half SideBySide / Горизонтальная анаморфная стереопара bot 17,41 GB
Зарубежное кино Исходное положение / Case depart (Лионел Стекете) (2011, комедия, HDRip) anatolyi100 1,46 GB
Аудиокниги Круз Андрей, Круз Мария - "Земля лишних.Исход" [Чайцын Александр, 2011] Oldket 987 MB
Показать сообщения:    
Ответить на тему

Текущее время: 07-Дек 17:25

Часовой пояс: UTC + 3



Вы не можете начинать темы
Вы не можете отвечать на сообщения
Вы не можете редактировать свои сообщения
Вы не можете удалять свои сообщения
Вы не можете голосовать в опросах
Вы не можете прикреплять файлы к сообщениям
Вы не можете скачивать файлы