Час призраков (Время призраков) в 3Д / 3 A.M. 3D (Исара Нади, Кирати Накинтанон, Путипонг Сайсикай / Isara Nadee, Kirati Nakintanon, Putipong Saisikaew) [2012, Ужасы, BDrip-AVC] Half SideBySide / Горизонтальная анаморфная стереопара

Ответить на тему
Статистика раздачи [Обновить пиров]
Нет
 
   
 
 
Автор
Сообщение

Создавать темы 14-Окт-2015 17:36

Час призраков (Время призраков) / 3 A.M.
Год выпуска: 2012
Страна: Таиланд
Студия: Five star production
Жанр: Ужасы
Продолжительность: 01:36:00
Перевод: Профессиональный (двухголосый закадровый)
Русские субтитры: нет
Режиссер на русском: Исара Нади / Кирати Накинтанон / Путипонг Сайсикай /
Режиссер на английском: Isara Nadee / Kirati Nakintanon / Putipong Saisikaew
В ролях: Апиня Сакуляроенсак, Фокус Джиракул, Шакрит Ямнарм, Рэй МакДональд, Тони Раккаен, Питер Найт, Васана Чалакорн
Описание: 3 часа ночи — время призраков. Три истории, рассказанные ночью. Их объединяет одно — страх. Однажды в мастерскую по изготовлению париков приносят волосы. Хозяева мастерской и их гости не подозревают, что они были срезаны с тела убитой девушки. Ночью призрак убитой оживает и решает до смерти напугать тех, кто присвоил ее волосы. Бедный студент подрабатывает тем, что присматривает за странным домом-склепом, где покоятся тела молодой пары, погибшей накануне собственной свадьбы. Ему строго-настрого запрещено входить в их комнату, но любопытство берет верх. Расплата будет жестокой. Двое владельцев компании решают пошутить над своими подчиненными. За то, что те любят засиживаться в офисе допоздна, чтобы получить сверхурочные, они решают проучить их и как следует напугать. Но неожиданно работники офиса сталкиваются с настоящими призраками.

Качество: BDrip
Контейнер: MKV
Формат 3D: Half SideBySide / Горизонтальная анаморфная стереопара
Порядок ракурсов: левый ракурс первый
Видео кодек: x264
Аудио кодек: AC3
Видео: MPEG-4 AVC, 10.4 Мбит/с, 1920x1080, 23.976 кадр/с
Аудио: AC3, 2 ch, 192 Кбит/с

MediaInfo

Общее
Уникальный идентификатор : 222051195600739408418887192779479468632 (0xA70D8132AC0FC9B4BA77A2D847724A58)
Полное имя : D:\3D\Час призраков (Время призраков) .mkv
Формат : Matroska
Версия формата : Version 2
Размер файла : 7,12 Гбайт
Продолжительность : 1 ч. 34 м.
Общий поток : 10,8 Мбит/сек
Название фильма : Время призраков
Дата кодирования : UTC 2014-03-12 12:57:40
Программа кодирования : mkvmerge v4.0.0 ('The Stars were mine') сборка от Jun 6 2010 16:18:42
Библиотека кодирования : libebml v1.0.0 + libmatroska v1.0.0
Видео
Идентификатор : 1
Формат : AVC
Формат/Информация : Advanced Video Codec
Профиль формата : [email protected]
Параметр CABAC формата : Да
Параметр ReFrames формата : 2 кадра
Идентификатор кодека : V_MPEG4/ISO/AVC
Продолжительность : 1 ч. 34 м.
Битрейт : 10,4 Мбит/сек
Ширина : 1920 пикселей
Высота : 1080 пикселей
Соотношение сторон : 16:9
Режим частоты кадров : Постоянный
Частота кадров : 23,976 кадра/сек
Цветовое пространство : YUV
Субдискретизация насыщенности : 4:2:0
Битовая глубина : 8 бит
Тип развёртки : Прогрессивная
Бит/(Пиксели*Кадры) : 0.209
Размер потока : 6,85 Гбайт (96%)
Библиотека кодирования : x264 core
Язык : English
Default : Нет
Forced : Нет
Основные цвета : BT.709
Характеристики трансфера : BT.709
Коэффициенты матрицы : BT.709
colour_range : Limited
Аудио
Идентификатор : 2
Формат : AC-3
Формат/Информация : Audio Coding 3
Расширение режима : CM (complete main)
Параметр Endianness формата : Big
Идентификатор кодека : A_AC3
Продолжительность : 1 ч. 34 м.
Вид битрейта : Постоянный
Битрейт : 192 Кбит/сек
Каналы : 2 канала
Расположение каналов : Front: L R
Частота : 48,0 КГц
Битовая глубина : 16 бит
Метод сжатия : С потерями
Размер потока : 130 Мбайт (2%)
Заголовок : Нет
Язык : Russian
Default : Нет
Forced : Нет

Скриншоты

 
Показать сообщения:    
Ответить на тему

Текущее время: 05-Дек 19:34

Часовой пояс: UTC + 3



Вы не можете начинать темы
Вы не можете отвечать на сообщения
Вы не можете редактировать свои сообщения
Вы не можете удалять свои сообщения
Вы не можете голосовать в опросах
Вы не можете прикреплять файлы к сообщениям
Вы не можете скачивать файлы