Поцелуй меня Кэт в 3Д / Kiss Me Kate 3D (Джордж Сидни / George Sidney) [1953, Мюзикл, Мелодрама, Комедия, BDrip-AVC] VO, Half OverUnder / Вертикальная анаморфная стереопара

Ответить на тему
Статистика раздачи [Обновить пиров]
Нет
 
   
 
 
Автор
Сообщение

Создавать темы 14-Окт-2015 17:36

Поцелуй меня Кэт
Kiss Me Kate

Год выпуска: 1953
Страна: США (Metro-Goldwyn-Mayer)
Жанр: Мюзикл, Мелодрама, Комедия
Продолжительность: 1:50:19
Перевод: Любительский одноголосый закадровый (Ирэн)
Режиссер: Джордж Сидни / George Sidney-Роли исполняли: Кэтрин Грэйсон (Lilli Vanessi «Katherine»), Ховард Кил (Fred Graham «Petruchio»), Энн Миллер (Lois Lane «Bianca»), Кинен Уинн (Lippy), Бобби Ван («Gremio»), Томми Ралл (Bill Calhoun «Lucentio»), Джеймс Уитмор (Slug), Курт Казнар (Baptista), Боб Фосси («Hortensio»), Рон Рэнделл (Cole Porter), Уиллард Паркер (Tex Callaway), Дэйв О’Брайэн (Ralph), Клод Аллистер (Paul), Энн Коуди (Suzanne)-Описание: Актер и режиссер Фред Грехэм и Коул Портер вместе работают над мюзиклом по комедии великого Уильяма Шекспира «Укрощение строптивой». Они оба считают, что единственной женщиной, способной сыграть строптивую Катерину, может быть только Лилли Ванесси, бывшая жена Фреда. Неприятности, связанные с постановкой, начинаются, когда Луис Лэйн — новая подружка композитора заявляет, что она будет играть Бьянку, младшую сестру Катерины.
Исполняющий роль Петруччо, красавчик Фред охотно соглашается, чтобы побольнее уколоть свою бывшую супругу. Между тем партнер Луис по танцам Бил Кэлхаун оказывается азартнымигроком и от имени Фреда подписывает долговые обязательства на несколько тысяч долларов. В день премьеры двое гангстеров Липпи и Слаг приходят получить должок…
-Премьера (мир): 5 ноября 1953
. .
-Качество: BDRip (by Ash61)
Контейнер: MKV
Формат 3D: Half OverUnder / Вертикальная анаморфная стереопара
Порядок ракурсов: левый ракурс первый-Видео: AVC / 23,976 fps / 1920х1080p / 17.3 Mbps
Аудио:
#1 - Русский / AC3 / 48 KHz / 5.1 ch / 640 Kbps (VO - Ирэн) (сведение в 5.1 - Ash61)
#2 - Английский / AC3 / 48 KHz / 5.1 ch / 640 Kbps (Original - BD 3D)
Субтитры: Внешние (SRT ANSI) English SDH (BD 3D)

MediaInfo

General
Unique ID : 218790465752872462084237392476678383405 (0xA49982CDE16F44399D5A388DFE53E72D)
Complete name : E:\KissMeKate(1953)3D-halfOU(Ash61)VO\KissMeKate(1953)3D-halfOU(Ash61)VO.mkv
Format : Matroska
Format version : Version 2
File size : 14.6 GiB
Duration : 1h 50mn
Overall bit rate : 18.9 Mbps
Movie name : Поцелуй меня Кэт / Kiss Me Kate (1953) 3D
Encoded date : UTC 2015-02-24 14:54:38
Writing application : mkvmerge v5.8.0 ('No Sleep / Pillow') built on Sep 2 2012 15:37:04
Writing library : libebml v1.2.3 + libmatroska v1.3.0
Video
ID : 1
Format : AVC
Format/Info : Advanced Video Codec
Format profile : [email protected]
Format settings, CABAC : Yes
Format settings, ReFrames : 4 frames
Codec ID : V_MPEG4/ISO/AVC
Duration : 1h 50mn
Bit rate : 17.3 Mbps
Width : 1 920 pixels
Height : 1 080 pixels
Display aspect ratio : 16:9
Frame rate mode : Constant
Frame rate : 23.976 fps
Color space : YUV
Chroma subsampling : 4:2:0
Bit depth : 8 bits
Scan type : Progressive
Bits/(Pixel*Frame) : 0.348
Stream size : 13.3 GiB (91%)
Title : BDRip by Ash61
Writing library : x264 core 138 r2358 9e941d1
Encoding settings : cabac=1 / ref=4 / deblock=1:-1:-1 / analyse=0x3:0x113 / me=umh / subme=10 / psy=1 / psy_rd=1.00:0.00 / mixed_ref=1 / me_range=32 / chroma_me=1 / trellis=2 / 8x8dct=1 / cqm=0 / deadzone=21,11 / fast_pskip=1 / chroma_qp_offset=-2 / threads=12 / lookahead_threads=3 / sliced_threads=0 / nr=0 / decimate=1 / interlaced=0 / bluray_compat=0 / constrained_intra=0 / bframes=10 / b_pyramid=2 / b_adapt=2 / b_bias=0 / direct=3 / weightb=1 / open_gop=0 / weightp=2 / keyint=250 / keyint_min=23 / scenecut=40 / intra_refresh=0 / rc_lookahead=60 / rc=crf / mbtree=1 / crf=18.0 / qcomp=0.70 / qpmin=10 / qpmax=69 / qpstep=4 / vbv_maxrate=40000 / vbv_bufsize=30000 / crf_max=0.0 / nal_hrd=none / frame-packing=4 / ip_ratio=1.40 / aq=1:0.70
Language : English
Default : Yes
Forced : No
Audio #1
ID : 2
Format : AC-3
Format/Info : Audio Coding 3
Mode extension : CM (complete main)
Format settings, Endianness : Big
Codec ID : A_AC3
Duration : 1h 50mn
Bit rate mode : Constant
Bit rate : 640 Kbps
Channel(s) : 6 channels
Channel positions : Front: L C R, Side: L R, LFE
Sampling rate : 48.0 KHz
Bit depth : 16 bits
Compression mode : Lossy
Stream size : 505 MiB (3%)
Title : Любительский одноголосый закадровый - Ирэн (сведение в 5.1 - Ash61)
Language : Russian
Default : Yes
Forced : No
Audio #2
ID : 3
Format : AC-3
Format/Info : Audio Coding 3
Mode extension : CM (complete main)
Format settings, Endianness : Big
Codec ID : A_AC3
Duration : 1h 50mn
Bit rate mode : Constant
Bit rate : 640 Kbps
Channel(s) : 6 channels
Channel positions : Front: L C R, Side: L R, LFE
Sampling rate : 48.0 KHz
Bit depth : 16 bits
Compression mode : Lossy
Stream size : 505 MiB (3%)
Title : Original - BD 3D
Language : English
Default : No
Forced : No
Menu
00:00:00.000 : :1
00:14:41.547 : :2
00:22:28.347 : :3
00:30:51.224 : :4
00:39:19.148 : :5
00:51:24.081 : :6
00:59:23.435 : :7
01:11:42.590 : :8
01:19:39.775 : :9
01:29:33.702 : :10
01:41:29.542 : :11
01:49:41.366 : :12

Для оценки 3Д - Анимированные скрины















 
Похожие темы
Форум Тема Автор Размер
HD Давай поцелуемся [Серии: 1-12 из 12] (Сергей Чекалов) (2014, мелодрама, комедия, WEB-DL 720p) anatolyi100 5,54 GB
Документальные Черная мамба: поцелуй смерти / Black Mamba: kiss of death (Кира Иванофф) (2013, документальный, природа, HDTVRip) anatolyi100 597 MB
Показать сообщения:    
Ответить на тему

Текущее время: 08-Дек 14:54

Часовой пояс: UTC + 3



Вы не можете начинать темы
Вы не можете отвечать на сообщения
Вы не можете редактировать свои сообщения
Вы не можете удалять свои сообщения
Вы не можете голосовать в опросах
Вы не можете прикреплять файлы к сообщениям
Вы не можете скачивать файлы