Жажда скорости в 3Д / Need for Speed 3D (Scott Waugh / Скотт Во) [2014, Боевик, драма, BDrip-AVC] Half SideBySide / Горизонтальная анаморфная стереопара

Ответить на тему
Статистика раздачи [Обновить пиров]
Нет
 
   
 
 
Автор
Сообщение

Создавать темы 14-Окт-2015 17:36

Жажда скорости / Need for Speed
Год выпуска: 2014
Страна: США, Филиппины, Ирландия, Великобритания
Студия: DreamWorks SKG, Electronic Arts
Жанр: Боевик, драма
Продолжительность: 2:10:29
Перевод: Профессиональный (дублированный)
Русские субтитры: нет
Режиссер на русском: Scott Waugh
Режиссер на английском: Скотт Во
В ролях: Аарон Пол, Доминик Купер, Имоджен Путс, Дакота Джонсон, Майкл Китон, Рамон Родригес, Ник Чинланд, Скотт Мескади, Рами Малек, Харрисон Джилбертсон
Описание: История Тоби Маршалла, гениального автомеханика, чьей единственной отдушиной является участие в подпольных гонках. Чтобы сохранить семейную мастерскую, Тоби вынужден взять в партнеры богатого и заносчивого бывшего гонщика NASCAR Дино Брюстера. Когда дела Тоби наконец-то начинают идти в гору, Дино подставляет партнера, и Тоби обвиняют в преступлении, которого он не совершал. Спустя два года Тоби выходит из тюрьмы с мыслью о мести. Чтобы достичь своей цели, ему придется совершить невозможное и доказать, что даже в мире броских суперкаров самый невзрачный гонщик может финишировать первым.
Меню: нет
Качество: BDrip
Контейнер: MKV
Формат 3D: Half SideBySide / Горизонтальная анаморфная стереопара
Порядок ракурсов: левый ракурс первый
Видео кодек: h.264
Аудио кодек: AC3
Видео: AVC / 23,976 fps / 1920х804p / 13.5 Mbp
Аудио: Русский (AC3, 6 ch, 448 Кбит/с)

MediaInfo

бщее
Уникальный идентификатор : 246249753502500109559692608461872950122 (0xB941FA3755BE1CDEAD9A7EF1EBD9EB6A)
Полное имя : C:\3D\Video\NEED_FOR_SPEED_3D\NEED_FOR_SPEED.3D (gent).mkv
Формат : Matroska
Версия формата : Version 2
Размер файла : 5,46 Гбайт
Продолжительность : 2 ч. 10 м.
Общий поток : 5994 Кбит/сек
Название фильма : NEED_FOR_SPEED.Title799
Дата кодирования : UTC 2015-02-24 19:58:40
Программа кодирования : DVDFab
Библиотека кодирования : libebml v0.7.8 + libmatroska v0.8.1
Видео
Идентификатор : 1
Формат : AVC
Формат/Информация : Advanced Video Codec
Профиль формата : [email protected]
Параметр CABAC формата : Да
Параметр ReFrames формата : 2 кадра
Идентификатор кодека : V_MPEG4/ISO/AVC
Продолжительность : 2 ч. 10 м.
Битрейт : 5426 Кбит/сек
Ширина : 1920 пикселей
Высота : 804 пикселя
Соотношение сторон : 2,40:1
Режим частоты кадров : Постоянный
Частота кадров : 23,976 кадра/сек
Цветовое пространство : YUV
Субдискретизация насыщенности : 4:2:0
Битовая глубина : 8 бит
Тип развёртки : Прогрессивная
Бит/(Пиксели*Кадры) : 0.147
Размер потока : 4,95 Гбайт (91%)
Библиотека кодирования : x264 core
Default : Да
Forced : Нет
Основные цвета : BT.709
Характеристики трансфера : BT.709
Коэффициенты матрицы : BT.709
colour_range : Limited
Аудио
Идентификатор : 2
Формат : AC-3
Формат/Информация : Audio Coding 3
Расширение режима : CM (complete main)
Параметр Endianness формата : Big
Идентификатор кодека : A_AC3
Продолжительность : 2 ч. 10 м.
Вид битрейта : Постоянный
Битрейт : 448 Кбит/сек
Каналы : 6 каналов
Расположение каналов : Front: L C R, Side: L R, LFE
Частота : 48,0 КГц
Битовая глубина : 16 бит
Метод сжатия : С потерями
Размер потока : 418 Мбайт (7%)
Язык : Russian
Default : Да
Forced : Нет
Текст
Идентификатор : 3
Формат : PGS
Идентификатор кодека : S_HDMV/PGS
Идентификатор кодека/Информация : The same subtitle format used on BDs/HD-DVDs
Язык : Russian
Default : Да
Forced : Нет

Скриншоты





 
Похожие темы
Форум Тема Автор Размер
HD Need for Speed: Жажда скорости / Need for Speed BDRip 1080p (Лицензия) Dima1981 11,97 GB
3D/Stereo фильмы Need for Speed: Жажда скорости в 3Д / Need for Speed 3D (Скотт Во / Scott Waugh) [2014, боевик, триллер, драма, криминал, Blu-ray disc 1080p] BD3D EUR bot 45,7 GB
Зарубежное кино Жажда скорости / Need for Speed [BDRip 720p] (2014) | 60 fps от NNNB Avdey 6,64 GB
Показать сообщения:    
Ответить на тему

Текущее время: 04-Дек 11:10

Часовой пояс: UTC + 3



Вы не можете начинать темы
Вы не можете отвечать на сообщения
Вы не можете редактировать свои сообщения
Вы не можете удалять свои сообщения
Вы не можете голосовать в опросах
Вы не можете прикреплять файлы к сообщениям
Вы не можете скачивать файлы