Невероятное путешествие мистера Спивета в 3Д / The Young and Prodigious T.S. Spivet 3D (Жан-Пьер Жёне / Jean-Pierre Jeunet) [2013, Драма, Приключения, Семейный, BDrip-AVC] Dub, Half OverUnder / Вертикальная анаморфная стереопара

Ответить на тему
Статистика раздачи [Обновить пиров]
Нет
 
   
 
 
Автор
Сообщение

Создавать темы 14-Окт-2015 17:37

-Невероятное путешествие мистера Спивета
L'extravagant voyage du jeune et prodigieux T.S. Spivet
The Young and Prodigious T.S. Spivet

Год выпуска: 2013
Страна: Франция, Канада (Gaumont, Epithete Films, Tapioca Films, Filmarto, ...)
Жанр: Драма, Приключения, Семейный
Продолжительность: 1:45:03
Перевод: Профессиональный дублированный - НТВ+
Режиссер: Жан-Пьер Жёне / Jean-Pierre Jeunet-Роли исполняли:
.............
T.S. Spivet - Кайл Кэтлетт
Dr. Clair - Хелена Бонем Картер
G.H. Jibsen - Джуди Дэвис
Father - Каллум Кит Ренни
Gracie - Ниам Уилсон
Layton - Джейкоб Дейвис
Two Clouds - Доминик Пинон
Roy - Рик Мерсер
Ricky - Джулиан Ричингс
Mr. Stenpock - Ричард Жютра
-Описание: История о приключениях 12-летнего гения по имени Т. С. Спивет, избранные работы которого его приятель рискнул отправить в один известный вашингтонский институт. Неожиданно Спивету звонят из этого института с приглашением приехать забрать престижную награду и заодно выступить с докладом. Мальчик сбегает из дома, но ему нужно проехать через всю страну…-Доп. инфо: За исходник русской дороги спасибо xfiles!-Премьера мир (Россия): 28 сентября 2013 (30 октября 2014)
. .
-Качество: BDRip (by Ash61)
Контейнер: MKV
Формат 3D: Half OverUnder / Вертикальная анаморфная стереопара
Порядок ракурсов: левый ракурс первый
Видео кодек: x264
Аудио кодек: AC3-Видео: AVC / 23,976 fps / 1920х1080p / 11.4 Mbps
Аудио:
#1 - Русский / AC3 / 48 KHz / 5.1 ch / 448 Kbps (Дубляж - НТВ+)
#2 - Английский / AC3 / 48 KHz / 5.1 ch / 640 Kbps (Original - BD 3D Fre)
Субтитры (внешние SRT UTF- Cool: Русские Полные (перевод Denniel Palmer)

MediaInfo

General
Unique ID : 195101757548133903664482959625408610692 (0x92C73B511D35B1779B5B3BCD68160184)
Complete name : E:\TheYoungAndProdigiousT.S.Spivet(2013)3D-halfOU(Ash61)NTV+\TheYoungAndProdigiousT.S.Spivet(2013)3D-halfOU(Ash61)NTV+.mkv
Format : Matroska
Format version : Version 2
File size : 9.32 GiB
Duration : 1h 45mn
Overall bit rate : 12.7 Mbps
Movie name : Невероятное путешествие мистера Спивета / L'extravagant voyage du jeune et prodigieux T.S. Spivet / The Young and Prodigious T.S. Spivet (2013) 3D
Encoded date : UTC 2015-01-01 21:46:43
Writing application : mkvmerge v5.8.0 ('No Sleep / Pillow') built on Sep 2 2012 15:37:04
Writing library : libebml v1.2.3 + libmatroska v1.3.0
Video
ID : 1
Format : AVC
Format/Info : Advanced Video Codec
Format profile : [email protected]
Format settings, CABAC : Yes
Format settings, ReFrames : 4 frames
Codec ID : V_MPEG4/ISO/AVC
Duration : 1h 45mn
Bit rate : 11.4 Mbps
Width : 1 920 pixels
Height : 1 080 pixels
Display aspect ratio : 16:9
Frame rate mode : Constant
Frame rate : 23.976 fps
Color space : YUV
Chroma subsampling : 4:2:0
Bit depth : 8 bits
Scan type : Progressive
Bits/(Pixel*Frame) : 0.228
Stream size : 8.33 GiB (89%)
Title : BDRip by Ash61
Writing library : x264 core 129 r2245 bc13772
Encoding settings : cabac=1 / ref=4 / deblock=1:-3:-3 / analyse=0x3:0x113 / me=umh / subme=10 / psy=1 / psy_rd=1.00:0.15 / mixed_ref=1 / me_range=32 / chroma_me=1 / trellis=2 / 8x8dct=1 / cqm=0 / deadzone=21,11 / fast_pskip=1 / chroma_qp_offset=-3 / threads=12 / lookahead_threads=2 / sliced_threads=0 / nr=0 / decimate=1 / interlaced=0 / bluray_compat=0 / constrained_intra=0 / bframes=9 / b_pyramid=2 / b_adapt=2 / b_bias=0 / direct=3 / weightb=1 / open_gop=0 / weightp=2 / keyint=250 / keyint_min=23 / scenecut=40 / intra_refresh=0 / rc_lookahead=60 / rc=crf / mbtree=1 / crf=17.5 / qcomp=0.70 / qpmin=0 / qpmax=69 / qpstep=4 / vbv_maxrate=40000 / vbv_bufsize=30000 / crf_max=0.0 / nal_hrd=none / frame-packing=4 / ip_ratio=1.40 / aq=1:0.70
Language : English
Default : Yes
Forced : No
Audio #1
ID : 2
Format : AC-3
Format/Info : Audio Coding 3
Mode extension : CM (complete main)
Format settings, Endianness : Big
Codec ID : A_AC3
Duration : 1h 45mn
Bit rate mode : Constant
Bit rate : 448 Kbps
Channel(s) : 6 channels
Channel positions : Front: L C R, Side: L R, LFE
Sampling rate : 48.0 KHz
Bit depth : 16 bits
Compression mode : Lossy
Stream size : 337 MiB (4%)
Title : Дубляж - НТВ+
Language : Russian
Default : Yes
Forced : No
Audio #2
ID : 3
Format : AC-3
Format/Info : Audio Coding 3
Mode extension : CM (complete main)
Format settings, Endianness : Big
Codec ID : A_AC3
Duration : 1h 45mn
Bit rate mode : Constant
Bit rate : 640 Kbps
Channel(s) : 6 channels
Channel positions : Front: L C R, Side: L R, LFE
Sampling rate : 48.0 KHz
Bit depth : 16 bits
Compression mode : Lossy
Stream size : 481 MiB (5%)
Title : Original - BD 3D Fre
Language : English
Default : No
Forced : No
Menu
00:00:00.000 : :1
00:05:48.932 : :2
00:14:55.728 : :3
00:20:51.500 : :4
00:29:59.673 : :5
00:38:31.726 : :6
00:46:13.813 : :7
00:55:29.034 : :8
01:06:40.997 : :9
01:13:58.100 : :10
01:26:25.472 : :11
01:36:23.486 : :12

Для оценки 3Д - Анимированные скрины















 
Похожие темы
Форум Тема Автор Размер
3D/Stereo фильмы Невероятное путешествие мистера Спивета в 3Д / The Young and Prodigious T.S. Spivet 3D (Жан-Пьер Жене / Jean-Pierre Jeunet) [2014, Драма, приключения, семейный, BDremux, 1080p] BD3D bot 24,2 GB
Отечественные сериалы Невероятные приключения Алины Троянской [Серии: 5-8 из 8] (Виктория Держицкая) (2014, Детектив, приключения, HDTVRip-AVC) anatolyi100 2,73 GB
Отечественные сериалы Невероятные приключения Алины Троянской [Серии:1-4 из 4] (Виктория Держицкая) (2014, Детектив, приключения, SATRip) anatolyi100 5,18 GB
Отечественные сериалы Теория невероятности [Серии:1-2 из 2] (Станислав Назиров) (2015, мелодрама, HDTVRip) anatolyi100 2,73 GB
Показать сообщения:    
Ответить на тему

Текущее время: 09-Дек 12:38

Часовой пояс: UTC + 3



Вы не можете начинать темы
Вы не можете отвечать на сообщения
Вы не можете редактировать свои сообщения
Вы не можете удалять свои сообщения
Вы не можете голосовать в опросах
Вы не можете прикреплять файлы к сообщениям
Вы не можете скачивать файлы