Трансформеры 3: Тёмная сторона Луны в 3Д / Transformers: Dark of the Moon 3D (Майкл Бэй / Michael Bay) [2011, фантастика, боевик, приключения, BDRip-AVC] Анаглиф green-magenta

Ответить на тему
Статистика раздачи [Обновить пиров]
Нет
 
   
 
 
Автор
Сообщение

Создавать темы 15-Окт-2015 10:05

Трансформеры 3: Тёмная сторона Луны
Transformers: Dark of the Moon
- Название: Трансформеры 3: Тёмная сторона Луны
Оригинальное название: Transformers: Dark of the Moon
Год выпуска: 2011
Страна: США
Жанр: фантастика, боевик, приключения
Продолжительность: 02:34:23
Перевод: Профессиональный (дублированный)
Русские субтитры: есть
Оригинальная аудиодорожка: английский-Режиссер: Майкл Бэй / Michael Bay
В ролях: Шайа ЛаБаф, Джош Дюамель, Джон Туртурро, Тайриз Гибсон, Роузи Хантингтон-Уайтли, Патрик Демпси, Кевин Данн, Джули Уайт, Джон Малкович, Питер Каллен.
Описание: Для наших героев наступили печальные будни: Сэм потерял Микаэлу, правительство выпускает законодательный акт о выселении Автоботов с Земли, а пока Мегатрон скрывается после позорного поражения Фоллена, десептикон Шокуэйв, правитель Кибертрона, готовится нанести визит нашей планете с совсем недобрыми намерениями. Действие заключительной части трилогии на этот раз охватит не только Землю, но и Луну, темная сторона которой хранит не менее темные тайны.-Формат 3D: Анаглиф green-magenta
Качество: BDRip 1080p
Контейнер: MKV
Видео: 1920x800 (2.40:1), 23.976 fps, High Profile 4.0 ~11500 kbps
Аудио 1: Russian 48 kHz, 5.1 AC3 Dolby Digital Audio, 640.00 kbps avg | Dub CEE
Аудио 2: English 48 kHz, 5.1 AC3 Dolby Digital Audio, 640.00 kbps avg | Original
Субтитры: русские форсированные, русские полные, английские полные, английские sdh

Инфо

Format : Matroska
File size : 14.1 GiB
Duration : 2h 34mn
Overall bit rate : 13.0 Mbps
Movie name : Трансформеры 3: Тёмная сторона Луны / Transformers: Dark of the Moon 2011
Encoded date : UTC 2014-11-16 19:40:55
Writing application : mkvmerge v6.6.0 ('The Edge Of The In Between') built on Dec 1 2013 17:55:00
Writing library : libebml v1.3.0 + libmatroska v1.4.1
Video
ID : 1
Format : AVC
Format/Info : Advanced Video Codec
Format profile : [email protected]
Format settings, CABAC : Yes
Format settings, ReFrames : 4 frames
Codec ID : V_MPEG4/ISO/AVC
Duration : 2h 34mn
Bit rate : 11.5 Mbps
Width : 1 920 pixels
Height : 800 pixels
Display aspect ratio : 2.40:1
Frame rate : 23.976 fps
Color space : YUV
Chroma subsampling : 4:2:0
Bit depth : 8 bits
Scan type : Progressive
Bits/(Pixel*Frame) : 0.312
Stream size : 12.4 GiB (88%)
Title : BDRip 1080p 3D Anaglyph
Writing library : x264 core 115 r1995 c1e60b9
Encoding settings : cabac=1 / ref=4 / deblock=1:-2:-2 / analyse=0x3:0x113 / me=umh / subme=9 / psy=1 / psy_rd=1.00:0.15 / mixed_ref=1 / me_range=16 / chroma_me=1 / trellis=2 / 8x8dct=1 / cqm=0 / deadzone=21,11 / fast_pskip=1 / chroma_qp_offset=-3 / threads=6 / sliced_threads=0 / nr=0 / decimate=1 / interlaced=0 / bluray_compat=0 / constrained_intra=0 / bframes=6 / b_pyramid=0 / b_adapt=2 / b_bias=0 / direct=3 / weightb=1 / open_gop=0 / weightp=2 / keyint=250 / keyint_min=23 / scenecut=40 / intra_refresh=0 / rc_lookahead=40 / rc=crf / mbtree=1 / crf=18.0 / qcomp=0.60 / qpmin=10 / qpmax=69 / qpstep=4 / ip_ratio=1.40 / aq=1:1.00
Language : English
Audio #1
ID : 2
Format : AC-3
Format/Info : Audio Coding 3
Mode extension : CM (complete main)
Codec ID : A_AC3
Duration : 2h 34mn
Bit rate mode : Constant
Bit rate : 640 Kbps
Channel(s) : 6 channels
Channel positions : Front: L C R, Side: L R, LFE
Sampling rate : 48.0 KHz
Bit depth : 16 bits
Stream size : 707 MiB (5%)
Title : Dub
Language : Russian
Audio #2
ID : 3
Format : AC-3
Format/Info : Audio Coding 3
Mode extension : CM (complete main)
Codec ID : A_AC3
Duration : 2h 34mn
Bit rate mode : Constant
Bit rate : 640 Kbps
Channel(s) : 6 channels
Channel positions : Front: L C R, Side: L R, LFE
Sampling rate : 48.0 KHz
Bit depth : 16 bits
Stream size : 707 MiB (5%)
Title : Original
Language : English
Text #1
ID : 4
Format : UTF-8
Codec ID : S_TEXT/UTF8
Codec ID/Info : UTF-8 Plain Text
Title : Forced
Language : Russian
Text #2
ID : 5
Format : UTF-8
Codec ID : S_TEXT/UTF8
Codec ID/Info : UTF-8 Plain Text
Title : Full
Language : Russian
Text #3
ID : 6
Format : UTF-8
Codec ID : S_TEXT/UTF8
Codec ID/Info : UTF-8 Plain Text
Title : Full
Language : English
Text #4
ID : 7
Format : UTF-8
Codec ID : S_TEXT/UTF8
Codec ID/Info : UTF-8 Plain Text
Title : Full SDH
Language : English
Menu
00:00:00.000 : en:00:00:00.000
00:08:52.574 : en:00:08:52.574
00:14:26.616 : en:00:14:26.616
00:20:20.928 : en:00:20:20.928
00:28:48.143 : en:00:28:48.143
00:36:18.635 : en:00:36:18.635
00:45:18.549 : en:00:45:18.549
00:51:53.027 : en:00:51:53.027
00:56:34.224 : en:00:56:34.224
01:04:13.308 : en:01:04:13.308
01:12:56.706 : en:01:12:56.706
01:19:09.078 : en:01:19:09.078
01:23:41.391 : en:01:23:41.391
01:28:44.819 : en:01:28:44.819
01:35:13.082 : en:01:35:13.082
01:42:44.158 : en:01:42:44.158
01:49:12.337 : en:01:49:12.337
01:56:42.913 : en:01:56:42.913
02:04:59.117 : en:02:04:59.117
02:11:29.590 : en:02:11:29.590
02:19:10.884 : en:02:19:10.884
02:25:37.520 : en:02:25:37.520

Скриншоты

 
Похожие темы
Форум Тема Автор Размер
Документальные Космос: Пространство и время (Cosmos: A Spacetime Odyssey) [2014, Документальный, HDTVRip 720p] S0ul 14,55 GB
TPS (3rd Person) Трансформеры: Битва за Кибертрон RePack by R.G. SevGamers Ruslan666815 4,36 GB
Сборники и Сиквелы Трансформеры: Трилогия / Transformers: Trilogy (Майкл Бэй) [ фантастика, боевик,приключения, BDRip 1080p] Lost_Mind 34,72 GB
HD Трансформеры: Эпоха истребления / Transformers: Age of Extinction (2014) BDRip 1080p | Чистый звук Lost_Mind 11,37 GB
Зарубежное кино Трансформеры: Эпоха истребления / Transformers: Age Of Extinction (Майкл Бэй) [2014, США, Китай, Фантастика, боевик, приключения, BDRip | Звук с TS] ЗвЕрЁк 2,6 GB
Зарубежное кино Трансформеры: Эпоха истребления / Transformers: Age Of Extinction (Майкл Бэй) [2014, США, Китай, Фантастика, боевик, приключения, TS] Олег_SevStar 2,9 GB
3D/Stereo фильмы Трансформеры: Эпоха истребления в 3Д / Transformers: Age of Extinction 3D (Майкл Бэй / Michael Bay) [2014, Фантастика, боевик, приключения, BDrip, 1080p] OverUnder / Вертикальная стереопара bot 31,08 GB
Показать сообщения:    
Ответить на тему

Текущее время: 10-Дек 02:09

Часовой пояс: UTC + 3



Вы не можете начинать темы
Вы не можете отвечать на сообщения
Вы не можете редактировать свои сообщения
Вы не можете удалять свои сообщения
Вы не можете голосовать в опросах
Вы не можете прикреплять файлы к сообщениям
Вы не можете скачивать файлы