Геракл: Начало легенды в 3Д / The Legend of Hercules 3D (Ренни Харлин / Renny Harlin) [2013, Боевик, Фэнтези, BDrip-AVC] Half OverUnder / Вертикальная анаморфная стереопара

Ответить на тему
Статистика раздачи [Обновить пиров]
Скачал: [ 2 ]
 
   
 
 
Автор
Сообщение

Создавать темы 15-Окт-2015 10:06

Геракл: Начало легенды
The Legend of Hercules
- .
Год выпуска: 2013
Страна: США, Болгария (Lionsgate, Summit Entertainment, Millennium Films, Nu Boyana)
Жанр: Боевик, Фэнтези
Продолжительность: 1:38:39
Перевод: Профессиональный дублированный
Режиссер: Ренни Харлин / Renny Harlin-Роли исполняли (дублировали):
.............
Hercules - Келлан Латс (Олег Новиков)
King Amphitryon - Скотт Эдкинс (Владимир Антоник)
Sotiris - Лиам МакИнтайр (Денис Некрасов)
Hebe - Джая Уайсс (Евгения Ваган)
Iphicles - Лайам Гэрриган
Queen Alcmene - Роксанна МакКи
Chiron - Раде Шербеджия
Tarak - Джонатон Шек
Agamemnon - Люк Ньюберри
Lucius - Кеннет Крэнэм
Kakia - Мэрайя Гэйл
Saphirra - Сарай Гивати
-Описание: 1200 г. до н. э. Древняя Греция. Прекрасная царица Алкмена попала под чары грозного бога Олимпа — Зевса и родила ему сына Геракла. При рождении ему было предсказано стать величайшим воином, который будет властвовать над народами и принесет мир и процветание своей стране. Но пока Геракл ничего не знает о своем предназначении. Он вырос прекрасным и сильным юношей. Он мечтает о любви принцессы Крита, Гебы, которая обещана в жены его брату. Когда Геракл узнает о своей великой миссии, он должен выбрать: сбежать со своей любовью или исполнить свое предназначение.

Знаете ли вы, что...:

  • Роксанна МакКи, играющая мать Келлана Латса, старше его всего на 5 лет.
  • Когда Келлан Латс получил роль, он хотел набрать большую мышечную массу, чтобы изобразить Геракла. Но режиссер Ренни Харлин сказал ему просто сделать пресс более рельефным.
  • Исполнивший роль Креонта Юкка Хилден является каскадером и участником финского экстремального шоу Dudesons, более известного в России под названием «Горячие финские парни». К сожалению, сюжетная линия актера не вошла в конечную версию фильма.
  • Келлан Латс рассказал, что, поскольку он снимался без рубашки на протяжении большей части фильма, это позволяло ему отжиматься и делать упражнения на пресс в перерывах между дублями. При этом он мог не бояться того, что вспотеет или же испачкает костюм. За один съемочный день Латс делал более 1000 отжиманий и столько же раз качал пресс. По его словам, благодаря этому его персонаж выглядит таким накачанным.
Премьера: 8 января 2014 (23 января 2014)
Релиз на Blu-Ray (DVD) (Россия): 9 сентября 2014
Бюджет: $70 000 000
Кассовые сборы: $61 279 452

. .
-Качество: BDRip (by Ash61)
Контейнер: MKV
Формат 3D: Half OverUnder / Вертикальная анаморфная стереопара
Порядок ракурсов: левый ракурс первый
Видео кодек: x264
Аудио кодек: AC3-Видео: AVC / 23,976 fps / 1920х1080p / ~10.7 Mbps
Аудио:
#1 - Русский / AC3 / 48 KHz / 5.1 ch / 640 Kbps (Дубляж - BD Rus)
#2 - Английский / AC3 / 48 KHz / 5.1 ch / 640 Kbps (Original - BD 3D)
Субтитры: Внешние (SRT UTF- Cool English Full (BD 3D)За лицензионную дорогу спасибо avproh!

MediaInfo

General
Unique ID : 238812879083105084223895169900439558034 (0xB3A9AFFF8D0AFE61A2DBA0D3F6EE5792)
Complete name : E:\TheLegendOfHercules(2013)3D-halfOU(Ash61)\TheLegendOfHercules(2013)3D-halfOU(Ash61).mkv
Format : Matroska
Format version : Version 2
File size : 8.43 GiB
Duration : 1h 38mn
Overall bit rate : 12.2 Mbps
Movie name : Геракл: Начало легенды / The Legend of Hercules (2013) 3D
Encoded date : UTC 2014-09-10 16:32:51
Writing application : mkvmerge v5.8.0 ('No Sleep / Pillow') built on Sep 2 2012 15:37:04
Writing library : libebml v1.2.3 + libmatroska v1.3.0
Video
ID : 1
Format : AVC
Format/Info : Advanced Video Codec
Format profile : [email protected]
Format settings, CABAC : Yes
Format settings, ReFrames : 4 frames
Codec ID : V_MPEG4/ISO/AVC
Duration : 1h 38mn
Bit rate : 10.7 Mbps
Width : 1 920 pixels
Height : 1 080 pixels
Display aspect ratio : 16:9
Frame rate mode : Constant
Frame rate : 23.976 fps
Color space : YUV
Chroma subsampling : 4:2:0
Bit depth : 8 bits
Scan type : Progressive
Bits/(Pixel*Frame) : 0.215
Stream size : 7.38 GiB (88%)
Title : BDRip by Ash61
Writing library : x264 core 129 r2245 bc13772
Encoding settings : cabac=1 / ref=4 / deblock=1:-3:-3 / analyse=0x3:0x113 / me=umh / subme=10 / psy=1 / psy_rd=1.00:0.15 / mixed_ref=1 / me_range=32 / chroma_me=1 / trellis=2 / 8x8dct=1 / cqm=0 / deadzone=21,11 / fast_pskip=1 / chroma_qp_offset=-3 / threads=12 / lookahead_threads=2 / sliced_threads=0 / nr=0 / decimate=1 / interlaced=0 / bluray_compat=0 / constrained_intra=0 / bframes=10 / b_pyramid=2 / b_adapt=2 / b_bias=0 / direct=3 / weightb=1 / open_gop=0 / weightp=2 / keyint=250 / keyint_min=23 / scenecut=40 / intra_refresh=0 / rc_lookahead=60 / rc=crf / mbtree=1 / crf=17.0 / qcomp=0.70 / qpmin=0 / qpmax=69 / qpstep=4 / vbv_maxrate=40000 / vbv_bufsize=30000 / crf_max=0.0 / nal_hrd=none / frame-packing=4 / ip_ratio=1.40 / aq=1:0.70
Language : English
Default : Yes
Forced : No
Audio #1
ID : 2
Format : AC-3
Format/Info : Audio Coding 3
Mode extension : CM (complete main)
Format settings, Endianness : Big
Codec ID : A_AC3
Duration : 1h 38mn
Bit rate mode : Constant
Bit rate : 640 Kbps
Channel(s) : 6 channels
Channel positions : Front: L C R, Side: L R, LFE
Sampling rate : 48.0 KHz
Bit depth : 16 bits
Compression mode : Lossy
Stream size : 452 MiB (5%)
Title : Дубляж - BD Rus
Language : Russian
Default : Yes
Forced : No
Audio #2
ID : 3
Format : AC-3
Format/Info : Audio Coding 3
Mode extension : CM (complete main)
Format settings, Endianness : Big
Codec ID : A_AC3
Duration : 1h 38mn
Bit rate mode : Constant
Bit rate : 640 Kbps
Channel(s) : 6 channels
Channel positions : Front: L C R, Side: L R, LFE
Sampling rate : 48.0 KHz
Bit depth : 16 bits
Compression mode : Lossy
Stream size : 452 MiB (5%)
Title : Original - BD 3D
Language : English
Default : No
Forced : No
Menu
00:00:00.000 : :1
00:14:07.221 : :2
00:36:13.546 : :3
00:58:32.676 : :4
01:18:37.630 : :5
01:29:12.806 : :6

Для оценки 3Д - Анимированные скрины












10.09.2014. Релиз обновлён - русская дорога заменена на лицензию.
Желающие, скачайте заново торрент-файл.
 
Похожие темы
Форум Тема Автор Размер
HD Геракл / Hercules (Бретт Рэтнер) [2014, боевик, приключения, фэнтези, BDRip] [1080p] [DUB чистый звук] [EXTENDED] Dima1981 11,18 GB
3D/Stereo фильмы Геракл в 3Д / Hercules 3D (Бретт Рэтнер / Brett) [2014, Боевик, Приключения, BDrip, 1080p] OverUnder / Вертикальная стереопара bot 13,25 GB
3D/Stereo фильмы Геракл: Начало легенды 3Д / The Legend of Hercules 3D (Ренни Харлин / Renny Harlin) [2013, Боевик, Фэнтези, BDrip, 1080p] OverUnder / Вертикальная стереопара bot 12,54 GB
Показать сообщения:    
Ответить на тему

Текущее время: 06-Дек 19:04

Часовой пояс: UTC + 3



Вы не можете начинать темы
Вы не можете отвечать на сообщения
Вы не можете редактировать свои сообщения
Вы не можете удалять свои сообщения
Вы не можете голосовать в опросах
Вы не можете прикреплять файлы к сообщениям
Вы не можете скачивать файлы