Помпеи в 3Д / Pompeii 3D (Пол У. С. Андерсон / Paul W.S. Anderson) [2014, боевик, драма, мелодрама, приключения, BDRip-AVC] (Half SideBySide / Горизонтальная анаморфная стереопара) Dub + Original (Eng) + Sub (Rus, Eng)

Ответить на тему
Статистика раздачи [Обновить пиров]
Нет
 
   
 
 
Автор
Сообщение

Создавать темы 15-Окт-2015 10:22

Помпеи / Pompeii
Страна: США, Германия, Канада
Производство: Constantin Film Produktion GmbH, Don Carmody Produ
Жанр: боевик, драма, мелодрама, приключения
Год выпуска: 2014
Продолжительность: 01:44:59
Перевод: Профессиональный (дублированный) BD RUS
Оригинальная аудиодорожка: английская
Cубтитры: русские, английские
Режиссер: Пол У. С. Андерсон / Paul W.S. Anderson
В ролях: Кит Харингтон, Эмили Браунинг, Кифер Сазерленд, Адевале Акиннуойе-Агбадже, Джаред Харрис, Кэрри-Энн Мосс, Джессика Лукас, Саша Ройз, Джо Пинг, Карри Грэм
Описание: История любви раба Майло и благородной Кассии, обрученной с римским сенатором, на фоне извержения Везувия, которое навсегда стерло с лица земли древнеримский город Помпеи...

Релиз: fanatus
Качество видео: BDRip
Исходник: POMPEI_3D_BLUEBIRD
Контейнер: MKV
Формат 3D: Half SideBySide / Горизонтальная анаморфная стереопара
Порядок ракурсов: левый ракурс первый
Видео кодек: x264
Аудио кодек: DTS
Видео: MPEG-4 AVC, 12.5 Mbps , 1920x1080 (16:9), 23.976 fps, 0.251 bit/pixel
Аудио 1: русский (DTS, 6 ch, 48 kHz, 1510 kbps)
Аудио 2: английский (DTS, 6 ch, 48 kHz, 1510 kbps)
Формат субтитров: softsub (SRT)
Главы: есть

MediaInfo

General
Unique ID : 173742849275137933971527871698951305382 (0x82B5A7D5AD84F4E195A57D56556578A6)
Complete name : E:\Pompeii.2014.3D-HalfSBS.x264.BDRip.1080p.fanatus.mkv
Format : Matroska
Format version : Version 2
File size : 11.4 GiB
Duration : 1h 44mn
Overall bit rate : 15.5 Mbps
Movie name : Pompeii (2014) - fanatus
Encoded date : UTC 2014-08-11 12:22:56
Writing application : mkvmerge v3.4.0 ('Rapunzel') сборка от May 15 2010 09:38:20
Writing library : libebml v0.8.0 + libmatroska v0.9.0
Attachment : Yes
Video
ID : 1
Format : AVC
Format/Info : Advanced Video Codec
Format profile : [email protected]
MultiView_Count : 2
Format settings, CABAC : Yes
Format settings, ReFrames : 4 frames
Codec ID : V_MPEG4/ISO/AVC
Duration : 1h 44mn
Bit rate : 12.5 Mbps
Width : 1 920 pixels
Height : 1 080 pixels
Display aspect ratio : 16:9
Frame rate : 23.976 fps
Color space : YUV
Chroma subsampling : 4:2:0
Bit depth : 8 bits
Scan type : Progressive
Bits/(Pixel*Frame) : 0.251
Stream size : 8.94 GiB (79%)
Title : 3D-HalfSBS BDRip(1080p)
Writing library : x264 core 142 r2431+42 c69a006 tMod [[email protected] X86]
Encoding settings : cabac=1 / ref=4 / deblock=1:-3:-3 / analyse=0x3:0x113 / me=umh / subme=11 / psy=1 / fade_compensate=0.00 / psy_rd=1.05:0.05 / mixed_ref=1 / me_range=64 / chroma_me=1 / trellis=2 / 8x8dct=1 / cqm=0 / deadzone=21,11 / fast_pskip=0 / chroma_qp_offset=-3 / threads=16 / lookahead_threads=2 / sliced_threads=0 / nr=0 / decimate=0 / interlaced=0 / bluray_compat=0 / constrained_intra=0 / fgo=0 / bframes=9 / b_pyramid=2 / b_adapt=2 / b_bias=0 / direct=3 / weightb=1 / open_gop=0 / weightp=2 / keyint=240 / keyint_min=23 / scenecut=40 / intra_refresh=0 / rc_lookahead=240 / rc=2pass / mbtree=0 / bitrate=12500 / ratetol=1.0 / qcomp=0.75 / qpmin=0:0:0 / qpmax=69:69:69 / qpstep=4 / cplxblur=20.0 / qblur=0.5 / vbv_maxrate=50000 / vbv_bufsize=62500 / nal_hrd=none / filler=0 / frame-packing=3 / ip_ratio=1.30 / pb_ratio=1.20 / aq=4:0.80 / aq-sensitivity=10.00 / aq-factor=1.00:1.00:1.00 / aq2=0 / aq3=0
Language : English
Default : Yes
Forced : No
Audio #1
ID : 2
Format : DTS
Format/Info : Digital Theater Systems
Codec ID : A_DTS
Duration : 1h 44mn
Bit rate mode : Constant
Bit rate : 1 510 Kbps
Channel(s) : 6 channels
Channel positions : Front: L C R, Side: L R, LFE
Sampling rate : 48.0 KHz
Bit depth : 24 bits
Compression mode : Lossy
Stream size : 1.11 GiB (10%)
Title : Dub (BD RUS)
Language : Russian
Default : Yes
Forced : No
Audio #2
ID : 3
Format : DTS
Format/Info : Digital Theater Systems
Codec ID : A_DTS
Duration : 1h 44mn
Bit rate mode : Constant
Bit rate : 1 510 Kbps
Channel(s) : 6 channels
Channel positions : Front: L C R, Side: L R, LFE
Sampling rate : 48.0 KHz
Bit depth : 24 bits
Compression mode : Lossy
Stream size : 1.11 GiB (10%)
Title : Original
Language : English
Default : No
Forced : No
Text #1
ID : 4
Format : UTF-8
Codec ID : S_TEXT/UTF8
Codec ID/Info : UTF-8 Plain Text
Title : Full
Language : Russian
Default : No
Forced : No
Text #2
ID : 5
Format : UTF-8
Codec ID : S_TEXT/UTF8
Codec ID/Info : UTF-8 Plain Text
Title : Full
Language : English
Default : No
Forced : No
Text #3
ID : 6
Format : UTF-8
Codec ID : S_TEXT/UTF8
Codec ID/Info : UTF-8 Plain Text
Title : SDH
Language : English
Default : No
Forced : No
Menu
00:00:00.000 : en:Chapter 1
00:05:27.077 : en:Chapter 2
00:09:51.674 : en:Chapter 3
00:15:58.457 : en:Chapter 4
00:19:52.858 : en:Chapter 5
00:26:45.103 : en:Chapter 6
00:32:36.621 : en:Chapter 7
00:38:18.838 : en:Chapter 8
00:47:35.811 : en:Chapter 9
00:52:17.718 : en:Chapter 10
01:03:25.218 : en:Chapter 11
01:09:02.930 : en:Chapter 12
01:17:27.309 : en:Chapter 13
01:23:46.521 : en:Chapter 14
01:30:04.149 : en:Chapter 15
01:35:08.119 : en:Chapter 16

x264 [info]


x264 [info]: 1920x1080p 1:1 @ 24000/1001 fps (cfr)
x264 [info]: color matrix: undef
x264 [info]: using SAR=1/1
x264 [info]: using cpu capabilities: MMX2 SSE2Fast LZCNT
x264 [info]: profile High, level 4.1
x264 [info]: started at Mon Aug 11 03:12:04 2014
x264 [info]: frame I:1469 Avg QP:12.88 size:237112
x264 [info]: frame P:38834 Avg QP:15.82 size:107500
x264 [info]: frame B:110729 Avg QP:17.32 size: 48031
x264 [info]: consecutive B-frames: 3.6% 6.4% 10.1% 35.0% 15.3% 22.0% 3.9% 2.8% 0.6% 0.2%
x264 [info]: mb I I16..4: 25.1% 56.9% 18.0%
x264 [info]: mb P I16..4: 0.9% 15.6% 1.9% P16..4: 19.7% 24.0% 8.3% 0.0% 0.0% skip:29.7%
x264 [info]: mb B I16..4: 0.1% 1.9% 0.2% B16..8: 26.2% 19.5% 3.9% direct: 7.1% skip:41.1% L0:42.0% L1:40.3% BI:17.7%
x264 [info]: 8x8 transform intra:81.2% inter:58.4%
x264 [info]: direct mvs spatial:97.7% temporal:2.3%
x264 [info]: coded y,uvDC,uvAC intra: 89.5% 87.6% 74.2% inter: 32.2% 30.9% 13.0%
x264 [info]: i16 v,h,dc,p: 49% 11% 19% 22%
x264 [info]: i8 v,h,dc,ddl,ddr,vr,hd,vl,hu: 17% 5% 8% 9% 12% 17% 9% 15% 10%
x264 [info]: i4 v,h,dc,ddl,ddr,vr,hd,vl,hu: 19% 7% 11% 7% 11% 16% 7% 12% 10%
x264 [info]: i8c dc,h,v,p: 40% 18% 24% 18%
x264 [info]: Weighted P-Frames: Y:7.5% UV:3.2%
x264 [info]: ref P L0: 51.2% 13.3% 23.2% 10.3% 2.0% 0.1%
x264 [info]: ref B L0: 86.7% 10.8% 2.5%
x264 [info]: ref B L1: 94.1% 5.9%
x264 [info]: kb/s:12498.43
x264 [info]: encoded 151032 frames, 3.736 fps, 12498.43 kb/s, 9385.5 MB
x264 [info]: ended at Mon Aug 11 14:25:50 2014
x264 [info]: encoding duration 11:13:46

Скриншот c названием фильма

Скриншоты

 
Похожие темы
Форум Тема Автор Размер
HD Помпеи / Pompeii BDRip 720p Dima1981 4,46 GB
3D/Stereo фильмы Помпеи в 3Д / Pompeii 3D (Пол У. С. Андерсон / Paul W.S. Anderson) [2014, Боевик, Драма, Мелодрама, BDrip-AVC] Half OverUnder / Вертикальная анаморфная стереопара bot 8,94 GB
3D/Stereo фильмы Помпеи в 3Д / Pompeii 3D (Пол У. С. Андерсон / Paul W.S. Anderson) [2014, Боевик, Драма, Мелодрама, История, BDrip, 1080p] OverUnder / Вертикальная стереопара bot 14,97 GB
Показать сообщения:    
Ответить на тему

Текущее время: 11-Дек 14:50

Часовой пояс: UTC + 3



Вы не можете начинать темы
Вы не можете отвечать на сообщения
Вы не можете редактировать свои сообщения
Вы не можете удалять свои сообщения
Вы не можете голосовать в опросах
Вы не можете прикреплять файлы к сообщениям
Вы не можете скачивать файлы