Новый Человек-паук 3Д / The Amazing Spider-Man 3D (Марк Уэбб / Marc Webb) [2012, фантастика, фэнтези, приключения, BDRip-AVC] Dub + Dub (Ukr) + Original (Eng) + Subs (Rus, Eng) [Half OverUnder / Вертикальная анаморфная стереопара]

Ответить на тему
Статистика раздачи [Обновить пиров]
Нет
 
   
 
 
Автор
Сообщение

Создавать темы 15-Окт-2015 10:22

Новый Человек-паук / The Amazing Spider-Man«Новый герой, новая история, новая любовь»- Страна: США
Жанр: фантастика, боевик, приключения
Год выпуска: 2012
Продолжительность: 02:16:17-Перевод №1: Профессиональный (дублированный)
Перевод №2: Профессиональный (дублированный) Ukrainian
Оригинальная аудиодорога №1: English
Оригинальная аудиодорога №2: English - Commentary
Cубтитры: Russian (captions+full+Commentary), English (full+Commentary) - (*.srt)
Навигация по главам: Присутствует - (16 глав)-Режиссер: Марк Уэбб / Marc Webb
В ролях: Эндрю Гарфилд, Эмма Стоун, Рис Иванс, Дэнис Лири, Мартин Шин, Салли Филд, Эмбет Дэвидц, Кэмпбелл Скотт, Ирфан Кхан, Крис Зилка, Макс Чарльз, С. Томас Хауэлл.-Описание:
В детстве Питер Паркер был оставлен своими родителями, и поэтому воспитывался дядей и тётей. Шли годы, Питер был обычным примерным школьником, подвергался нападкам хулиганов и был влюблён в свою одноклассницу Гвен Стэйси, которая сама втайне отвечала ему взаимностью. Но после укуса генетически изменённого паука, Питер получает невероятные сверхспособности и его жизнь меняется навсегда.
Однако его не перестаёт мучить вопрос о том, что случилось с его родителями. Он знакомится с давним другом и партнёром своего отца — генетиком Куртом Коннорсом, который вместе с отцом Питера разрабатывал формулу регенерации. Питер помогает её закончить, а Коннорс, всю жизнь мечтавший восстановить свою правую руку, вводит формулу себе и становится Ящером. Осознавая свою вину, Питер начинает новую жизнь в образе таинственного супергероя Человека-паука и становится грозой преступников, одновременно пытаясь найти способ остановить Коннорса.
-
Download sample-Качество видео: BDRip | исх. Blu-ray 3D CEE 1080p AVC DD5.1
Формат видео: MKV
Видео кодек: x264
Аудио кодек: AC3, DTS
Формат 3D: Half OverUnder / Вертикальная анаморфная стереопара
Порядок ракурсов: Левый ракурс первый-Видео: 1920x1080 at 23.976 fps, [email protected], 2pass, ~7710 kbps avg
Аудио №1: 48 kHz, AC3, 3/2 (L,C,R,l,r) + LFE ch, ~640.00 kbps avg | Профессиональный (дублированный)
Аудио №2: 48 kHz, AC3, 3/2 (L,C,R,l,r) + LFE ch, ~640.00 kbps avg | Профессиональный (дублированный)
Аудио №3: 48 kHz, DTS, 3/2 (L,C,R,l,r) + LFE ch, ~1536.00 kbps avg | English
Аудио №4: 48 kHz, AC3, 2/0 (L,R) ch, ~192.00 kbps avg | English - Commentary-

Notes

MediaInfo

Общее
Уникальный идентификатор : 245718845233569151540599255450267899944 (0xB8DBBA6AE49E55DAA153F07EDB3F5828)
Полное имя : F:\The.Amazing.Spider-Man.2013.1080p.3D.BluRay.Half-OU.Rus.Ukr.2xEng.HDCLUB.mkv
Формат : Matroska
Версия формата : Version 2
Размер файла : 10,2 Гбайт
Продолжительность : 2 ч. 16 м.
Общий поток : 10,7 Мбит/сек
Дата кодирования : UTC 2014-02-01 22:53:14
Программа кодирования : mkvmerge v3.4.0 ('Rapunzel') сборка от May 15 2010 09:38:20
Библиотека кодирования : libebml v0.8.0 + libmatroska v0.9.0
Attachment : Yes
Видео
Идентификатор : 1
Формат : AVC
Формат/Информация : Advanced Video Codec
Профиль формата : [email protected]
Параметр CABAC формата : Да
Параметр ReFrames формата : 4 кадра
Идентификатор кодека : V_MPEG4/ISO/AVC
Продолжительность : 2 ч. 16 м.
Битрейт : 7710 Кбит/сек
Ширина : 1920 пикселей
Высота : 1080 пикселей
Соотношение сторон : 16:9
Режим частоты кадров : Постоянный
Частота кадров : 23,976 кадра/сек
Цветовое пространство : YUV
Субдискретизация насыщенности : 4:2:0
Битовая глубина : 8 бит
Тип развёртки : Прогрессивная
Бит/(Пиксели*Кадры) : 0.155
Размер потока : 7,14 Гбайт (70%)
Заголовок : The Amazing Spider-Man (2012) BDRIp 3D
Библиотека кодирования : x264 core 142 r2389 956c8d8
Настройки программы : cabac=1 / ref=4 / deblock=1:-3:-3 / analyse=0x3:0x113 / me=umh / subme=11 / psy=1 / psy_rd=1.00:0.00 / mixed_ref=1 / me_range=32 / chroma_me=1 / trellis=2 / 8x8dct=1 / cqm=0 / deadzone=21,11 / fast_pskip=0 / chroma_qp_offset=-2 / threads=12 / lookahead_threads=2 / sliced_threads=0 / nr=0 / decimate=0 / interlaced=0 / bluray_compat=0 / constrained_intra=0 / bframes=8 / b_pyramid=2 / b_adapt=2 / b_bias=0 / direct=3 / weightb=0 / open_gop=0 / weightp=2 / keyint=250 / keyint_min=23 / scenecut=40 / intra_refresh=0 / rc=2pass / mbtree=0 / bitrate=7710 / ratetol=1.0 / qcomp=0.60 / qpmin=10 / qpmax=51 / qpstep=4 / cplxblur=20.0 / qblur=0.5 / frame-packing=4 / ip_ratio=1.40 / pb_ratio=1.30 / aq=1:1.00
Язык : English
Default : Да
Forced : Нет
Аудио #1
Идентификатор : 2
Формат : AC-3
Формат/Информация : Audio Coding 3
Расширение режима : CM (complete main)
Параметр Endianness формата : Big
Идентификатор кодека : A_AC3
Продолжительность : 2 ч. 16 м.
Вид битрейта : Постоянный
Битрейт : 640 Кбит/сек
Каналы : 6 каналов
Расположение каналов : Front: L C R, Side: L R, LFE
Частота : 48,0 КГц
Битовая глубина : 16 бит
Метод сжатия : С потерями
Размер потока : 624 Мбайт (6%)
Заголовок : [Blu-ray CEE] Dub - AC3 5.1 @ 640 kbps
Язык : Russian
Default : Да
Forced : Нет
Аудио #2
Идентификатор : 3
Формат : AC-3
Формат/Информация : Audio Coding 3
Расширение режима : CM (complete main)
Параметр Endianness формата : Big
Идентификатор кодека : A_AC3
Продолжительность : 2 ч. 16 м.
Вид битрейта : Постоянный
Битрейт : 640 Кбит/сек
Каналы : 6 каналов
Расположение каналов : Front: L C R, Side: L R, LFE
Частота : 48,0 КГц
Битовая глубина : 16 бит
Метод сжатия : С потерями
Размер потока : 624 Мбайт (6%)
Заголовок : [Blu-ray CEE] Dub - AC3 5.1 @ 640 kbps
Язык : Ukrainian
Default : Нет
Forced : Нет
Аудио #3
Идентификатор : 4
Формат : DTS
Формат/Информация : Digital Theater Systems
Режим : 16
Параметр Endianness формата : Big
Идентификатор кодека : A_DTS
Продолжительность : 2 ч. 16 м.
Вид битрейта : Постоянный
Битрейт : 1509 Кбит/сек
Каналы : 6 каналов
Расположение каналов : Front: L C R, Side: L R, LFE
Частота : 48,0 КГц
Битовая глубина : 16 бит
Метод сжатия : С потерями
Размер потока : 1,44 Гбайт (14%)
Заголовок : [Blu-ray CEE] Org - DTS 5.1 @ 1536 kbps
Язык : English
Default : Нет
Forced : Нет
Аудио #4
Идентификатор : 5
Формат : AC-3
Формат/Информация : Audio Coding 3
Профиль формата : Dolby Digital
Расширение режима : CM (complete main)
Параметр Endianness формата : Big
Идентификатор кодека : A_AC3
Продолжительность : 2 ч. 16 м.
Вид битрейта : Постоянный
Битрейт : 192 Кбит/сек
Каналы : 2 канала
Расположение каналов : Front: L R
Частота : 48,0 КГц
Битовая глубина : 16 бит
Метод сжатия : С потерями
Размер потока : 187 Мбайт (2%)
Заголовок : [Blu-ray CEE] Commentary - AC3 2.0 @ 192 kbps
Язык : English
Default : Нет
Forced : Нет
Текст #1
Идентификатор : 6
Формат : UTF-8
Идентификатор кодека : S_TEXT/UTF8
Идентификатор кодека/Информация : UTF-8 Plain Text
Заголовок : [SRT/UTF8] Forced
Язык : Russian
Default : Да
Forced : Нет
Текст #2
Идентификатор : 7
Формат : UTF-8
Идентификатор кодека : S_TEXT/UTF8
Идентификатор кодека/Информация : UTF-8 Plain Text
Заголовок : [SRT/UTF8] Full
Язык : Russian
Default : Нет
Forced : Нет
Текст #3
Идентификатор : 8
Формат : UTF-8
Идентификатор кодека : S_TEXT/UTF8
Идентификатор кодека/Информация : UTF-8 Plain Text
Заголовок : [SRT/UTF8] Full
Язык : English
Default : Нет
Forced : Нет
Текст #4
Идентификатор : 9
Формат : UTF-8
Идентификатор кодека : S_TEXT/UTF8
Идентификатор кодека/Информация : UTF-8 Plain Text
Заголовок : [SRT/UTF8] Commentary
Язык : Russian
Default : Нет
Forced : Нет
Текст #5
Идентификатор : 10
Формат : UTF-8
Идентификатор кодека : S_TEXT/UTF8
Идентификатор кодека/Информация : UTF-8 Plain Text
Заголовок : [SRT/UTF8] Commentary
Язык : English
Default : Нет
Forced : Нет
Меню
00:00:00.000 : Chapter 1
00:07:45.924 : Chapter 2
00:14:39.670 : Chapter 3
00:22:57.543 : Chapter 4
00:32:58.226 : Chapter 5
00:41:25.066 : Chapter 6
00:48:42.503 : Chapter 7
00:55:10.933 : Chapter 8
01:03:17.293 : Chapter 9
01:12:29.011 : Chapter 10
01:17:51.750 : Chapter 11
01:24:38.949 : Chapter 12
01:34:04.556 : Chapter 13
01:42:59.548 : Chapter 14
01:52:16.355 : Chapter 15
02:00:52.912 : Chapter 16

x264 log

x264 [info]: frame I:2066 Avg QP:13.21
x264 [info]: frame P:46897 Avg QP:14,65
x264 [info]: frame B:147043 Avg QP:15.46
Screenshots
 
Похожие темы
Форум Тема Автор Размер
Симуляторы и гонки Pure (2008) (Disney Interactive Studios / Новый Диск) (английский + русский) [пиратка] Clieft 3,24 GB
Зарубежное кино Здравствуй, папа, Новый год / Daddy's Home (2015) BDRip 720р от SuperMin | Line Тоха™ 3,9 GB
Аудиокниги Лукьяненко Сергей - "Новый Дозор" [Иван Литвинов, 2012] Oldket 669 MB
Зарубежное кино Новый Человек-паук: Высокое напряжение / The Amazing Spider-Man 2 (Марк Уэбб) [2014, фэнтези, боевик, приключения, WEBRip] Serega624 2,05 GB
3D/Stereo фильмы Новый Человек-паук: Высокое напряжение в 3Д / The Amazing Spider-Man 2 3D (Марк Уэбб / Marc Webb) [2014, фэнтези, боевик, приключения, BDRip-AVC] Half SideBySide / Горизонтальная анаморфная стереопара bot 17,13 GB
Мультфильмы Самый лучший новый год!!! (сборник отечественных мультфильмов) [1946-2010 г., мультфильм, DVDRip] Зоя 13,59 GB
Показать сообщения:    
Ответить на тему

Текущее время: 06-Дек 13:09

Часовой пояс: UTC + 3



Вы не можете начинать темы
Вы не можете отвечать на сообщения
Вы не можете редактировать свои сообщения
Вы не можете удалять свои сообщения
Вы не можете голосовать в опросах
Вы не можете прикреплять файлы к сообщениям
Вы не можете скачивать файлы