Головолoмка / Inside Оut (Пит Дoктер, Рoналдо Дель Кармен / Рete Docter, Rоnnie Del Carmen) [2015, комедия, семейный, BDRip 720p]

Ответить на тему
Статистика раздачи [Обновить пиров]
Скачал: [ 20 ]
 
   
 
 
Автор
Сообщение

anatolyi100 ®

Стаж: 6 лет 2 месяца

Сообщений: 826

Откуда: г.герой Севастополь

Создавать темы 02-Ноя-2015 18:15

[Цитировать] 


Голoволомка | Inside Оut
«Нет слов, одни эмоции»
Локализованный видеоряд
- Страна: США | Pixar Animation Studios
Жанр: комедия, семейный
Продолжительность: 01:34:49
Перевод: профессиональный полное дублирование Blu-ray EUR | Disney / Buena Vista
Оригинал: английский
Год выпуска: 2015
Русские субтитры: Rus, Fre, Eng (Full, SDH)-Режиссёр: Пит Доктeр, Рoналдо Дель Кармен / Pete Dоcter, Rоnnie Del Carmen
Роли озвучивали: Льюис Блэк, Минди Кейлинг, Билл Хейдер, Эми Полер, Филлис Смит, Ричард Кайнд, Кейтлин Диас, Дайан Лэйн, Кайл МакЛоклен, Пола Паундстон-ОписаниеРайли — обычная 11-летняя школьница, и, как у каждого из нас, ее поведение определяют пять базовых эмоций: Радость, Печаль, Страх, Гнев и Брезгливость. Эмоции живут в сознании девочки и каждый день помогают ей справляться с проблемами, руководя всеми ее поступками. До поры до времени эмоции живут дружно, но вдруг оказывается, что Райли и ее родителям предстоит переезд из небольшого уютного городка в шумный и людный мегаполис. Каждая из эмоций считает, что именно она лучше прочих знает, что нужно делать в этой непростой ситуации, и в голове у девочки наступает полная неразбериха. Чтобы наладить жизнь в большом городе, освоиться в новой школе и подружиться с одноклассниками, эмоциям Райли предстоит снова научиться работать сообща.-
«Головоло́мка» (англ. Inside Out, дословно — «Наизнанку») — 3D-анимационный комедийно-драматический фильм студии Pixar. Фильм основан на оригинальной идее Пита Доктера
Релиз:

Сэмпл
Топ250: 91
IMDb: 8.4 (126 006) Топ250: 67
Качество: BDRip 720p Inside.Out.2015.BDRemux.1080p.bog3417
Формат: MKV
Видео: AVC 5142 Kbps 1280 x 720 (1.778) 23.976 fps
Аудио: AC-3 640 Kbps 6 channels, 48.0 KHz DUB Blu-ray EUR
Аудио 2: AC-3 640 Kbps 6 channels, 48.0 KHz DUB Disney / Buena Vista Ukr
Аудио 3: AC-3 640 Kbps 6 channels, 48.0 KHz Eng
Субтитры: Rus, Fre, Eng (Full, SDH)

MI | Log

Log

x264 [info]: frame I:1339 Avg QP:13.52 size:152754
x264 [info]: frame P:34708 Avg QP:14.83 size: 50742
x264 [info]: frame B:100372 Avg QP:16.95 size: 17850
x264 [info]: consecutive B-frames: 3.7% 3.6% 10.9% 38.1% 19.4% 19.8% 2.4% 0.7% 0.3% 0.5% 0.6%
x264 [info]: mb I I16..4: 9.6% 69.8% 20.6%
x264 [info]: mb P I16..4: 4.2% 13.4% 1.9% P16..4: 25.6% 28.8% 12.4% 2.7% 0.4% skip:10.5%
x264 [info]: mb B I16..4: 3.8% 2.2% 0.3% B16..8: 27.1% 18.5% 3.9% direct: 5.4% skip:38.8% L0:40.8% L1:43.3% BI:15.9%
x264 [info]: 8x8 transform intra:53.9% inter:52.2%
x264 [info]: direct mvs spatial:99.9% temporal:0.1%
x264 [info]: coded y,uvDC,uvAC intra: 59.7% 94.1% 87.6% inter: 19.9% 24.5% 11.9%
x264 [info]: i16 v,h,dc,p: 84% 4% 3% 8%
x264 [info]: i8 v,h,dc,ddl,ddr,vr,hd,vl,hu: 10% 12% 14% 8% 10% 10% 11% 11% 14%
x264 [info]: i4 v,h,dc,ddl,ddr,vr,hd,vl,hu: 9% 10% 19% 7% 12% 11% 12% 8% 11%
x264 [info]: i8c dc,h,v,p: 52% 18% 12% 17%
x264 [info]: Weighted P-Frames: Y:2.6% UV:1.7%
x264 [info]: ref P L0: 54.1% 9.9% 15.7% 5.7% 4.6% 3.4% 2.9% 1.7% 1.7% 0.3% 0.0%
x264 [info]: ref B L0: 75.3% 10.7% 5.5% 3.0% 2.3% 1.8% 1.0% 0.4%
x264 [info]: ref B L1: 93.5% 6.5%
x264 [info]: kb/s:5282.94
x264 [total]: encoded 136419 frames, 6.78 fps, 5282.94 kb/s, duration 5:35:16.73
Format : Matroska
Format version : Version 4 / Version 2
File size : 4.77 GiB
Duration : 1h 34mn
Overall bit rate : 7 205 Kbps
Encoded date : UTC 2015-10-31 19:25:16
Writing application : mkvmerge v6.7.0 ('Back to the Ground') 32bit built on Jan 8 2014 15:03:17
Writing library : libebml v1.3.0 + libmatroska v1.4.1
Video
ID : 1
Format : AVC
Format/Info : Advanced Video Codec
Format profile : [email protected]
Format settings, CABAC : Yes
Format settings, ReFrames : 9 frames
Codec ID : V_MPEG4/ISO/AVC
Duration : 1h 34mn
Bit rate : 5 142 Kbps
Width : 1 280 pixels
Height : 720 pixels
Display aspect ratio : 16:9
Frame rate mode : Constant
Frame rate : 23.976 fps
Color space : YUV
Chroma subsampling : 4:2:0
Bit depth : 8 bits
Scan type : Progressive
Bits/(Pixel*Frame) : 0.233
Stream size : 3.41 GiB (71%)
Title : Inside Out (2015) [rutracker.org]
Writing library : x264 core 148 r2579kMod 73ae2d1
Encoding settings : cabac=1 / ref=9 / deblock=1:-3:-2 / analyse=0x3:0x133 / me=umh / subme=11 / psy=1 / fade_compensate=0.00 / psy_rd=1.00:0.05 / mixed_ref=1 / me_range=32 / chroma_me=1 / trellis=2 / 8x8dct=1 / cqm=0 / deadzone=21,11 / fast_pskip=0 / chroma_qp_offset=-3 / threads=12 / lookahead_threads=3 / sliced_threads=0 / nr=0 / decimate=1 / interlaced=0 / bluray_compat=0 / constrained_intra=0 / fgo=0 / bframes=10 / b_pyramid=2 / b_adapt=2 / b_bias=0 / direct=3 / weightb=1 / open_gop=0 / weightp=2 / keyint=250 / keyint_min=23 / scenecut=40 / intra_refresh=0 / rc_lookahead=60 / rc=crf / mbtree=0 / crf=16.6000 / qcomp=0.60 / qpmin=0 / qpmax=69 / qpstep=4 / vbv_maxrate=50000 / vbv_bufsize=62500 / crf_max=0.0 / nal_hrd=none / filler=0 / ip_ratio=1.40 / pb_ratio=1.30 / aq=3:0.90
Language : English
Default : Yes
Forced : No
Audio #1
ID : 2
Format : AC-3
Format/Info : Audio Coding 3
Mode extension : CM (complete main)
Format settings, Endianness : Big
Codec ID : A_AC3
Duration : 1h 34mn
Bit rate mode : Constant
Bit rate : 640 Kbps
Channel(s) : 6 channels
Channel positions : Front: L C R, Side: L R, LFE
Sampling rate : 48.0 KHz
Compression mode : Lossy
Stream size : 434 MiB (9%)
Title : DUB Blu-ray EUR
Language : Russian
Default : Yes
Forced : No
Audio #2
ID : 3
Format : AC-3
Format/Info : Audio Coding 3
Mode extension : CM (complete main)
Format settings, Endianness : Big
Codec ID : A_AC3
Duration : 1h 34mn
Bit rate mode : Constant
Bit rate : 640 Kbps
Channel(s) : 6 channels
Channel positions : Front: L C R, Side: L R, LFE
Sampling rate : 48.0 KHz
Compression mode : Lossy
Stream size : 434 MiB (9%)
Title : DUB
Language : Ukrainian
Default : No
Forced : No
Audio #3
ID : 4
Format : AC-3
Format/Info : Audio Coding 3
Mode extension : CM (complete main)
Format settings, Endianness : Big
Codec ID : A_AC3
Duration : 1h 34mn
Bit rate mode : Constant
Bit rate : 640 Kbps
Channel(s) : 6 channels
Channel positions : Front: L C R, Side: L R, LFE
Sampling rate : 48.0 KHz
Compression mode : Lossy
Stream size : 434 MiB (9%)
Title : Original
Language : English
Default : No
Forced : No
Text #1
ID : 5
Format : UTF-8
Codec ID : S_TEXT/UTF8
Codec ID/Info : UTF-8 Plain Text
Title : Full
Language : Russian
Default : No
Forced : No
Text #2
ID : 6
Format : UTF-8
Codec ID : S_TEXT/UTF8
Codec ID/Info : UTF-8 Plain Text
Title : Full
Language : French
Default : No
Forced : No
Text #3
ID : 7
Format : UTF-8
Codec ID : S_TEXT/UTF8
Codec ID/Info : UTF-8 Plain Text
Title : Full
Language : English
Default : Yes
Forced : No
Text #4
ID : 8
Format : UTF-8
Codec ID : S_TEXT/UTF8
Codec ID/Info : UTF-8 Plain Text
Title : SDH
Language : English
Default : No
Forced : No
Menu
00:00:00.000 : en:Chapter 1
00:07:22.692 : en:Chapter 2
00:11:36.779 : en:Chapter 3
00:15:46.403 : en:Chapter 4
00:20:02.242 : en:Chapter 5
00:25:21.436 : en:Chapter 6
00:26:47.063 : en:Chapter 7
00:30:10.183 : en:Chapter 8
00:34:45.791 : en:Chapter 9
00:36:02.285 : en:Chapter 10
00:37:45.304 : en:Chapter 11
00:41:27.359 : en:Chapter 12
00:43:35.612 : en:Chapter 13
00:45:19.508 : en:Chapter 14
00:46:51.850 : en:Chapter 15
00:50:02.457 : en:Chapter 16
00:51:34.341 : en:Chapter 17
00:56:12.160 : en:Chapter 18
01:00:03.683 : en:Chapter 19
01:01:17.840 : en:Chapter 20
01:03:50.367 : en:Chapter 21
01:06:27.191 : en:Chapter 22
01:11:15.771 : en:Chapter 23
01:13:40.540 : en:Chapter 24
01:15:38.658 : en:Chapter 25
01:20:00.336 : en:Chapter 26
01:23:57.198 : en:Chapter 27
01:26:18.339 : en:Chapter 28[/pre]

Скриншоты | Rip vs Source





Rip vs Source

Rip

Source

Локализация





Последний раз редактировалось: anatolyi100 (2015-11-02 18:51), всего редактировалось 1 раз
[Профиль]  [ЛС] 

hardius

Стаж: 6 лет 2 месяца

Сообщений: 528

Создавать темы 02-Ноя-2015 18:36 (спустя 20 минут)

[Цитировать] 

Полный бред мультик, столько о нём слышал, думал будет просто интересный мультик, но не тут то было :(
[Профиль]  [ЛС] 

LADA Razvolution

Стаж: 2 года

Сообщений: 5

Создавать темы 13-Фев-2016 08:01 (спустя 3 месяца 10 дней)

[Цитировать] 

Отличный мультик,для просмотра с семьей в выходной,самое то!!!
[Профиль]  [ЛС] 
Похожие темы
Форум Тема Автор Размер
Сериалы Всадник без головы ТВ-2 / Durarara!! [TV-2] [1 - 12 из 12] [приключения, мистика, повседневность] [HDTVRip] [RUS(Int) Любительский] MANGA 4,3 GB
Аудиокниги Головачёв Василий - "Возвращение Джинна" [Юрий Лазарев, 2011] Oldket 822 MB
Аудиокниги Головачёв Василий - "Война с джиннами" [Юрий Лазарев, 2010] Oldket 731 MB
Аудиокниги Головачёв Василий - "Кладбище джиннов" [Юрий Лазарев, 2010] Oldket 369 MB
Аудиокниги Головачев Василий - Цикл "Посланник" [Семен Мендельсон, 2011] Oldket 3,12 GB
Аудиокниги Головачев Василий - Цикл о династии Ромашиных [Смирнов Петр, 2010-2011] Oldket 3,37 GB
Аудиокниги Головачёв Василий -"Спящий джинн" [Юрий Лазарев, 2010] Oldket 656 MB
Зарубежные сериалы Сорвиголова / Daredevil / Сезон: 1 / Серии: 1-13 из 13 (Фил Абрахам, Стивен С. ДеНайт, Кен Джиротти) [2015, фантастика, боевик, WEBRip] MVO (NewStudio) + Original Serega624 8,88 GB
Показать сообщения:    
Ответить на тему

Текущее время: 05-Дек 21:34

Часовой пояс: UTC + 3



Вы не можете начинать темы
Вы не можете отвечать на сообщения
Вы не можете редактировать свои сообщения
Вы не можете удалять свои сообщения
Вы не можете голосовать в опросах
Вы не можете прикреплять файлы к сообщениям
Вы не можете скачивать файлы