U.D.O. (UDO) - Navy Metal Night [2015 г., Heavy Metal, DVDRip]

Ответить на тему
Статистика раздачи [Обновить пиров]
Нет
 
   
 
 
Автор
Сообщение

anatolyi100 ®

Стаж: 6 лет 2 месяца

Сообщений: 826

Откуда: г.герой Севастополь

Создавать темы 02-Ноя-2015 18:34

[Цитировать] 

U.D.O. (UDO) - Navy Metal Night
Страна: Germany
Жанр: Heavy Metal
Продолжительность: 01:40:28
Год выпуска: 2015 г.
--Описание: В феврале 2014 года, U. D. O. играют в сопровождении оркестра Военно-Морского Флота Германии (Marinemusikkorps компания nordsee). Симфоническое звучание оркестра и хора слились с песнями U. D. O. и сделало вечер незабываемыми впечатлениями для зрителей.--Треклист:
01.Das Boot
02.Future Land
03.Independence Day
04.Animal Instinct
05.The Hall of the Mountain King
06.Heart of Gold
07.Man and Machine
08.Dancing with an Angel
09.Faceless World
10.Ride
11.Days of Hope and Glory
12.Cut Me Out
13.Trainride in Russia (Poezd Po Rossii)
14.Stillness of Time
15.King of Mean
16.Book of Faith
17.Animal House
-Источник: DVD9
Релиз:
Качество: DVDRip
Контейнер: AVI
Видео кодек: XviD
Аудио кодек: AC3
Видео: 720x400 (1.80:1), 23.976 fps, XviD build 50 ~2100 kbps avg, 0.30 bit/pixel
Аудио: 48 kHz, AC3 Dolby Digital, 3/2 (L,C,R,l,r) ch, ~448 kbps

МедиаИнфо

General
Complete name : D:\U.D.O. - Navy Metal Night 2015 DVDRip.avi
Format : AVI
Format/Info : Audio Video Interleave
File size : 1.80 GiB
Duration : 1h 40mn
Overall bit rate : 2 557 Kbps
Writing application : VirtualDubMod 1.5.10.2 (build 2540/release)
Writing library : VirtualDubMod build 2540/release
Video
ID : 0
Format : MPEG-4 Visual
Format profile : Advanced [email protected]
Format settings, BVOP : 1
Format settings, QPel : No
Format settings, GMC : No warppoints
Format settings, Matrix : Default (H.263)
Codec ID : XVID
Codec ID/Hint : XviD
Duration : 1h 40mn
Bit rate : 2 100 Kbps
Width : 720 pixels
Height : 400 pixels
Display aspect ratio : 16:9
Frame rate : 23.976 fps
Color space : YUV
Chroma subsampling : 4:2:0
Bit depth : 8 bits
Scan type : Progressive
Compression mode : Lossy
Bits/(Pixel*Frame) : 0.304
Stream size : 1.48 GiB (82%)
Writing library : XviD 1.2.1 (UTC 2008-12-04)
Audio
ID : 1
Format : AC-3
Format/Info : Audio Coding 3
Mode extension : CM (complete main)
Format settings, Endianness : Big
Codec ID : 2000
Duration : 1h 40mn
Bit rate mode : Constant
Bit rate : 448 Kbps
Channel(s) : 6 channels
Channel positions : Front: L C R, Side: L R, LFE
Sampling rate : 48.0 KHz
Bit depth : 16 bits
Compression mode : Lossy
Stream size : 322 MiB (18%)
Alignment : Aligned on interleaves
Interleave, duration : 42 ms (1.00 video frame)
Interleave, preload duration : 512 ms

Скриншоты

Раздача мультитрекерная - сиды есть всегда! На нули не обращайте внимания
[Профиль]  [ЛС] 
Показать сообщения:    
Ответить на тему

Текущее время: 06-Дек 20:52

Часовой пояс: UTC + 3



Вы не можете начинать темы
Вы не можете отвечать на сообщения
Вы не можете редактировать свои сообщения
Вы не можете удалять свои сообщения
Вы не можете голосовать в опросах
Вы не можете прикреплять файлы к сообщениям
Вы не можете скачивать файлы