Амистад / Amistad (Стивен Спилберг) [1997 г., Драма, детектив, исторический, BDRip 720p] MVO,DVO

Ответить на тему
Статистика раздачи [Обновить пиров]
Нет
 
   
 
 
Автор
Сообщение

mihis ®

Стаж: 2 года 1 месяц

Сообщений: 221

Создавать темы 03-Ноя-2015 15:02

[Цитировать] 

Амистад / Amistad«Freedom is not given. It is our right at birth. But there are some moments when it must be taken» Год выпуска: 1997
Страна: США, DreamWorks SKG, Home Box Office
Жанр: Драма, детектив, исторический
Продолжительность: 02:34:43
Перевод:
Профессиональный (двухголосый, закадровый) R5
Профессиональный (многоголосый, закадровый) СТС
Оригинал
Субтитры: Русские, английские
Режиссер: Стивен Спилберг
В ролях: Морган Фримен, Найджел Хоторн, Энтони Хопкинс, Джимон Хонсу, Мэттью МакКонахи, Дэвид Пэймер, Пит Постлетуэйт, Стеллан Скарсгард, Разаак Адоти, Анна Пакуин, Томас Милиан, Чиветел Эджиофор, Джон Ортиз, Пол Гилфойл, Ксандер Беркли, Остин Пендлтон, Джейк Уэбер, Кевин Дж. О`Коннор
Описание: Основаный на реальных событиях, фильм повествует о невероятном путешествии рабов африканцев, которые захватывают работорговый корабль «Амистад» и пытаются вернуться на родину. После того как власти наконец арестовывают корабль, рабов отправляют в Соединенные Штаты, где они попадают в тюрьму по обвинению в убийстве. Начинается процесс, затрагивающий основы американского правосудия и привлекающая внимание всей нации. Но для самих подсудимых это прежде всего борьба за свои права и свободу.

Качество: BDRip 720p
Формат: MKV
Видео кодек: H264
Аудио кодек: AC3, DTS
Видео: AVC, 1280x690 (1.855), 23.976 fps, 5 500 Kbps (0.260 bit/pixel)
Аудио #1: 48 kHz, AC3 6 канала(ов), ~448.00 kbps avg DVO R5
Аудио #2: 48 kHz, AC3 2 канала(ов), ~192.00 kbps avg MVO СТС
Аудио #3: 48 kHz, DTS 6 канала(ов), ~1509 kbps avg Eng

Награды

Оскар, 1998 год
Номинации (4):
Лучшая мужская роль второго плана (Энтони Хопкинс)
Лучшая работа оператора
Лучшие костюмы
Лучший саундтрек к драматическому фильму
Золотой глобус, 1998 год
Номинации (4):
Лучший фильм (драма)
Лучшая мужская роль (драма) (Джимон Хонсу)
Лучшая мужская роль второго плана (Энтони Хопкинс)
Лучший режиссер (Стивен Спилберг)
Европейская киноакадемия, 1998 год
Победитель (1):
Приз за выдающиеся достижения в мировом кино (Стеллан Скарсгард)
Премия Гильдии актеров, 1998 год
Номинации (1):
Лучшая мужская роль второго плана (Энтони Хопкинс)

MediaInfo

Общее
Уникальный идентификатор : 229297020485090218564730470432128289170 (0xAC80FFF24F410FDCB3C5226E607EC992)
Полное имя : D:Mои раздачиAmistad.1997.BDRip.720p-MediaClub.mkv
Формат : Matroska
Версия формата : Version 4 / Version 2
Размер файла : 8,26 Гбайт
Продолжительность : 2 ч. 34 м.
Общий поток : 7647 Кбит/сек
Название фильма : -=MediaClub-kaspr=-
Дата кодирования : UTC 2014-05-16 18:51:05
Программа кодирования : mkvmerge v6.9.1 ('Blue Panther') 64bit built on Apr 18 2014 18:23:38
Библиотека кодирования : libebml v1.3.0 + libmatroska v1.4.1
Видео
Идентификатор : 1
Формат : AVC
Формат/Информация : Advanced Video Codec
Профиль формата : [email protected]
Параметр CABAC формата : Да
Параметр ReFrames формата : 9 кадров
Идентификатор кодека : V_MPEG4/ISO/AVC
Продолжительность : 2 ч. 34 м.
Битрейт : 5500 Кбит/сек
Ширина : 1280 пикселей
Высота : 690 пикселей
Соотношение сторон : 1,85:1
Режим частоты кадров : Постоянный
Частота кадров : 23,976 кадра/сек
Цветовое пространство : YUV
Субдискретизация насыщенности : 4:2:0
Битовая глубина : 8 бит
Тип развёртки : Прогрессивная
Бит/(Пиксели*Кадры) : 0.260
Размер потока : 5,78 Гбайт (70%)
Заголовок : -=MediaClub-kaspr=-
Библиотека кодирования : x264 core 142 r2431+42 c69a006 tMod [[email protected]:2:0 X86_64]
Настройки программы : cabac=1 / ref=9 / deblock=1:-3:-3 / analyse=0x3:0x113 / me=umh / subme=11 / psy=1 / fade_compensate=0.00 / psy_rd=1.00:0.20 / mixed_ref=1 / me_range=32 / chroma_me=1 / trellis=2 / 8x8dct=1 / cqm=0 / deadzone=21,11 / fast_pskip=0 / chroma_qp_offset=-3 / threads=12 / lookahead_threads=3 / sliced_threads=0 / nr=0 / decimate=0 / interlaced=0 / bluray_compat=0 / constrained_intra=0 / fgo=0 / bframes=11 / b_pyramid=2 / b_adapt=2 / b_bias=0 / direct=3 / weightb=1 / open_gop=0 / weightp=2 / keyint=240 / keyint_min=23 / scenecut=40 / intra_refresh=0 / rc=2pass / mbtree=0 / bitrate=5500 / ratetol=1.0 / qcomp=0.60 / qpmin=0:0:0 / qpmax=69:69:69 / qpstep=4 / cplxblur=20.0 / qblur=0.5 / ip_ratio=1.40 / pb_ratio=1.30 / aq=4:0.80 / aq-sensitivity=10.00 / aq-factor=1.00:1.00:1.00 / aq2=0 / aq3=0
Default : Да
Forced : Да
Аудио #1
Идентификатор : 2
Формат : AC-3
Формат/Информация : Audio Coding 3
Расширение режима : CM (complete main)
Параметр Endianness формата : Big
Идентификатор кодека : A_AC3
Продолжительность : 2 ч. 34 м.
Вид битрейта : Постоянный
Битрейт : 448 Кбит/сек
Каналы : 6 каналов
Расположение каналов : Front: L C R, Side: L R, LFE
Частота : 48,0 КГц
Битовая глубина : 16 бит
Метод сжатия : С потерями
Размер потока : 496 Мбайт (6%)
Заголовок : DVO
Язык : Russian
Default : Да
Forced : Да
Аудио #2
Идентификатор : 3
Формат : AC-3
Формат/Информация : Audio Coding 3
Расширение режима : CM (complete main)
Параметр Endianness формата : Big
Идентификатор кодека : A_AC3
Продолжительность : 2 ч. 34 м.
Вид битрейта : Постоянный
Битрейт : 192 Кбит/сек
Каналы : 2 канала
Расположение каналов : Front: L R
Частота : 48,0 КГц
Битовая глубина : 16 бит
Метод сжатия : С потерями
Размер потока : 212 Мбайт (3%)
Заголовок : MVO
Язык : Russian
Default : Нет
Forced : Нет
Аудио #3
Идентификатор : 4
Формат : DTS
Формат/Информация : Digital Theater Systems
Режим : 16
Параметр Endianness формата : Big
Идентификатор кодека : A_DTS
Продолжительность : 2 ч. 34 м.
Вид битрейта : Постоянный
Битрейт : 1509 Кбит/сек
Каналы : 6 каналов
Расположение каналов : Front: L C R, Side: L R, LFE
Частота : 48,0 КГц
Битовая глубина : 24 бит
Метод сжатия : С потерями
Размер потока : 1,63 Гбайт (20%)
Язык : English
Default : Нет
Forced : Нет
Текст #1
Идентификатор : 5
Формат : UTF-8
Идентификатор кодека : S_TEXT/UTF8
Идентификатор кодека/Информация : UTF-8 Plain Text
Язык : Russian
Default : Нет
Forced : Нет
Текст #2
Идентификатор : 6
Формат : UTF-8
Идентификатор кодека : S_TEXT/UTF8
Идентификатор кодека/Информация : UTF-8 Plain Text
Язык : English
Default : Нет
Forced : Нет
Меню
00:00:00.000 : en:Chapter 01
00:05:21.738 : en:Chapter 02
00:13:04.784 : en:Chapter 03
00:22:51.453 : en:Chapter 04
00:28:03.973 : en:Chapter 05
00:36:28.644 : en:Chapter 06
00:46:25.449 : en:Chapter 07
00:50:00.330 : en:Chapter 08
01:00:14.736 : en:Chapter 09
01:08:57.883 : en:Chapter 10
01:16:28.083 : en:Chapter 11
01:26:34.105 : en:Chapter 12
01:32:00.890 : en:Chapter 13
01:41:00.679 : en:Chapter 14
01:45:48.884 : en:Chapter 15
01:49:31.690 : en:Chapter 16
01:54:32.991 : en:Chapter 17
01:59:41.549 : en:Chapter 18
02:01:57.184 : en:Chapter 19
02:08:11.225 : en:Chapter 20
02:13:57.612 : en:Chapter 21
02:18:53.325 : en:Chapter 22
02:23:55.376 : en:Chapter 23
02:27:47.650 : en:Chapter 24
[Профиль]  [ЛС] 
Показать сообщения:    
Ответить на тему

Текущее время: 05-Дек 23:37

Часовой пояс: UTC + 3



Вы не можете начинать темы
Вы не можете отвечать на сообщения
Вы не можете редактировать свои сообщения
Вы не можете удалять свои сообщения
Вы не можете голосовать в опросах
Вы не можете прикреплять файлы к сообщениям
Вы не можете скачивать файлы