Военный ныряльщик / Men of honor [Джордж Тиллман мл.] (2000 г., Драма, биография, BDRip 720p) Dub

Ответить на тему
Статистика раздачи [Обновить пиров]
Скачал: [ 3 ]
 
   
 
 
Автор
Сообщение

mihis ®

Стаж: 2 года 1 месяц

Сообщений: 221

Создавать темы 03-Ноя-2015 15:08

[Цитировать] 

Военный ныряльщик / Men of honor«Историю творят те, кто нарушает правила» Год выхода: 2000
Страна: США, Fox 2000 Pictures, State Street Pictures
Жанр: Драма, биография
Продолжительность: 02:08:47
Перевод: Профессиональный (полное дублирование) + Оригинал
Субтитры: Русские, английские
Режиссер: Джордж Тиллман мл.
В ролях: Роберт Де Ниро, Кьюба Гудинг мл., Шарлиз Терон, Онжаню Эллис, Хэл Холбрук, Майкл Рапапорт, Пауэрс Бут, Дэвид Кит, Холт МакКэллани, Дэвид Конрад, Джошуа Леонард, Карл Ламбли, Лонетт МакКи, Глинн Тёрмен, Джошуа Фейнман, Райан Хони, Джек Фрэзиер, Алими Баллард, Шоун Майкл Ховард, Мишель Гатри, Скотт Крафт, Дуле Хилл, Джон Полс, Роберт Бланш, Вейн Морс, Леон Рассом, Айанна Беркшир, Тайлер Пози
Описание: Фильм основан на реальных событиях из жизни легендарного водолаза Карла Брашира. Его наставник и старший офицер Билл Сандэй убежден, что неграм нечего делать во флоте, и самыми жестокими и бесчеловечными способами издевается и «обламывает» амбициозного новичка.Однако ему это не удается, и более того, вскоре он начинает испытывать симпатию к этому чрезвычайно упертому парню, который скорее погибнет, чем покажет слабость. Вместе они пытаются сопротивляться бюрократам из командования ВМФ, которых не устраивает цвет кожи героя.Карл всегда вызывается добровольцем на выполнение самых опасных секретных спецопераций, связанных с повышенным риском для жизни. Однако судьба приготовила ему куда более страшное испытание, преодолеть которое способен только настоящий герой.

Качество: BDRip 720p
Формат: MKV
Видео кодек: H264
Аудио кодек: AC3|DTS
Видео: 1280x544 (2.35:1), 23.976 fps, 3 445 Kbps, 0.290 bit/pixel
Аудио#1: 48 kHz, AC3 6 ch ~448 kbps avg Dub
Аудио#2: 48 kHz, DTS 6 ch ~1510 kbps avg Eng

MediaInfo

General
Unique ID : 186135979982999478201774050520947809041 (0x8C087C5A9E0F9B2F909FED071690DB11)
Complete name : D:\Men.of.Honor.2000.BDRip.720p.falco.mkv
Format : Matroska
Format version : Version 4 / Version 2
File size : 7.05 GiB
Duration : 2h 8mn
Overall bit rate mode : Variable
Overall bit rate : 7 832 Kbps
Encoded date : UTC 2014-09-01 16:50:49
Writing application : mkvmerge v7.1.0 ('Good Love') 64bit built on Jul 27 2014 13:06:55
Writing library : libebml v1.3.0 + libmatroska v1.4.1
DURATION : 02:00:58.501000000
NUMBER_OF_FRAMES : 2527
NUMBER_OF_BYTES : 6475786
_STATISTICS_WRITING_APP : mkvmerge v7.1.0 ('Good Love') 64bit built on Jul 27 2014 13:06:55
_STATISTICS_WRITING_DATE_UTC : 2014-09-01 16:50:49
_STATISTICS_TAGS : BPS DURATION NUMBER_OF_FRAMES NUMBER_OF_BYTES
Video
ID : 1
Format : AVC
Format/Info : Advanced Video Codec
Format profile : [email protected]
Format settings, CABAC : Yes
Format settings, ReFrames : 10 frames
Codec ID : V_MPEG4/ISO/AVC
Duration : 2h 8mn
Bit rate : 4 836 Kbps
Nominal bit rate : 3 445 Kbps
Width : 1 280 pixels
Height : 544 pixels
Display aspect ratio : 2.35:1
Frame rate : 23.976 fps
Color space : YUV
Chroma subsampling : 4:2:0
Bit depth : 8 bits
Scan type : Progressive
Bits/(Pixel*Frame) : 0.290
Stream size : 4.35 GiB (62%)
Writing library : x264 core 130 r2273 b3065e6
Encoding settings : cabac=1 / ref=10 / deblock=1:-3:-3 / analyse=0x3:0x133 / me=umh / subme=11 / psy=1 / psy_rd=1.00:0.10 / mixed_ref=1 / me_range=32 / chroma_me=1 / trellis=2 / 8x8dct=1 / cqm=0 / deadzone=21,11 / fast_pskip=0 / chroma_qp_offset=-3 / threads=6 / lookahead_threads=1 / sliced_threads=0 / nr=0 / decimate=0 / interlaced=0 / bluray_compat=0 / constrained_intra=0 / bframes=8 / b_pyramid=2 / b_adapt=2 / b_bias=0 / direct=3 / weightb=1 / open_gop=0 / weightp=2 / keyint=240 / keyint_min=23 / scenecut=40 / intra_refresh=0 / rc_lookahead=60 / rc=2pass / mbtree=1 / bitrate=3445 / ratetol=1.0 / qcomp=0.70 / qpmin=0 / qpmax=69 / qpstep=4 / cplxblur=20.0 / qblur=0.5 / vbv_maxrate=50000 / vbv_bufsize=62500 / nal_hrd=none / ip_ratio=1.40 / aq=1:1.00
Default : Yes
Forced : No
Audio #1
ID : 2
Format : AC-3
Format/Info : Audio Coding 3
Mode extension : CM (complete main)
Format settings, Endianness : Big
Codec ID : A_AC3
Duration : 2h 8mn
Bit rate mode : Constant
Bit rate : 448 Kbps
Channel(s) : 6 channels
Channel positions : Front: L C R, Side: L R, LFE
Sampling rate : 48.0 KHz
Bit depth : 16 bits
Compression mode : Lossy
Stream size : 413 MiB (6%)
Language : Russian
Default : Yes
Forced : No
Audio #2
ID : 3
Format : DTS
Format/Info : Digital Theater Systems
Format profile : MA / Core
Codec ID : A_DTS
Duration : 2h 8mn
Bit rate mode : Variable
Bit rate : 2 392 Kbps / 1 510 Kbps
Channel(s) : 6 channels
Channel positions : Front: L C R, Side: L R, LFE
Sampling rate : 48.0 KHz
Bit depth : 24 bits
Compression mode : Lossless / Lossy
Language : English
Default : No
Forced : No
Text #1
ID : 4
Format : PGS
Muxing mode : zlib
Codec ID : S_HDMV/PGS
Codec ID/Info : The same subtitle format used on BDs/HD-DVDs
Language : English
Default : Yes
Forced : No
Text #2
ID : 5
Format : PGS
Muxing mode : zlib
Codec ID : S_HDMV/PGS
Codec ID/Info : The same subtitle format used on BDs/HD-DVDs
Language : Russian
Default : No
Forced : No
[Профиль]  [ЛС] 
Похожие темы
Форум Тема Автор Размер
Шансон, Авторская и Военная песня (военно-морской шансон) Автономка-1,2,3-Александр Викторов - 2000-2009, MP3, 320 kbps Boxer 272 MB
HD 300 спартанцев / 300 (Зак Снайдер) [2007 г., фэнтези, боевик, военный, история, BDRip] -=DoC(ToP)=-™ 7,76 GB
Зарубежное кино 300 спартанцев: Расцвет империи / 300 Rise of an Empire (Ноам Мурро) [2014, боевик, драма, военный, WEB-DLRip-AVC] [Dub] [Лицензия (iTunes)] Lost_Mind 1,45 GB
3D/Stereo фильмы 300 спартанцев: Расцвет империи в 3Д / 300 Rise of an Empire 3D (Ноам Мурро) [2014, Боевик, драма, военный, BDremux, 1080p] BD3D bot 26,78 GB
3D/Stereo фильмы 300 спартанцев: Расцвет империи в 3Д / 300: Rise of an Empire 3D (Ноам Мурро / Noam Murro) [2014, Фэнтези, Боевик, Драма, Военный, BDrip-AVC] Half OverUnder / Вертикальная анаморфная стереопара bot 9,14 GB
3D/Stereo фильмы 300 спартанцев: Расцвет империи в 3Д / 300: Rise of an Empire 3D (Ноам Мурро / Ноам Мурро / Noam Mu) [2014, фэнтези, боевик, драма, военный, BDRip-AVC] Half SideBySide / Горизонтальная анамор... bot 12,26 GB
Документальные Алтарь Победы (1-31 серии) (Алексей Смаглюк) [2009-2010 г., Документальный, военный, SATRip] Фунтик 18,45 GB
Отечественные сериалы Ангелы войны (1-4 серии из 4)(Татьяна Ходаковская) [2012 г., Драма, военный, DVDRip-AVC] Лицензия mihis 2,9 GB
Показать сообщения:    
Ответить на тему

Текущее время: 03-Дек 03:20

Часовой пояс: UTC + 3



Вы не можете начинать темы
Вы не можете отвечать на сообщения
Вы не можете редактировать свои сообщения
Вы не можете удалять свои сообщения
Вы не можете голосовать в опросах
Вы не можете прикреплять файлы к сообщениям
Вы не можете скачивать файлы