Империя страсти / Ai no borei [Нагиса Осима] (1978 г., ужасы, триллер, драма, мелодрама, BDRip 720p) DVO

Ответить на тему
Статистика раздачи [Обновить пиров]
Нет
 
   
 
 
Автор
Сообщение

mihis ®

Стаж: 2 года 1 месяц

Сообщений: 221

Создавать темы 03-Ноя-2015 15:18

[Цитировать] 

Империя страсти / Ai no borei Год выхода: 1978
Страна: Япония, Франция
Жанр: ужасы, триллер, драма, мелодрама
Продолжительность: 01:45:00
Перевод:
Профессиональный (Двухголосый, закадровый)
Профессиональный (Двухголосый, закадровый) Кармен Видео
Оригинал
Субтитры: русские, английские
Режиссер: Нагиса Осима
В ролях: Тацуя Фудзи, Казуко Йошиюки, Такахиро Тамура, Такудзо Каватани, Akiyoshi Fujiwara, Масами Хасегава, Кензо Каварадзаки, Татсуя Кимура, Eizo Kitamura, Акико Кояма
Описание: В 1895 году в деревне возле Токио женщина и ее любовник убили мужа-рикшу и бросили тело в старый колодец. Три года они встречались тайком, и ей и другим жителям деревни являлся призрак покойного.
Их разоблачили, и после пыток они были казнены. Все это время их страсть не остывала, и последняя встреча любви состоялась на дне колодца среди останков убитого.

Качество: BDRip 720p
Формат: MKV
Видео: AVC, 10542 kbps, 1192x720 (1.656), 23.976 fps, [email protected]
Аудио#1: AC3, 48.0 KHz, 2 ch, 256 Kbps, CBR DVO
Аудио#2: AC3, 48.0 KHz, 2 ch, 192 Kbps, CBR DVO
Аудио#3: FLAC, 48.0 KHz, 2 ch, 357 kbps, VBR Jap

Награды

Каннский кинофестиваль, 1978 год
Победитель (1):
Лучший режиссер (Нагиса Осима)
Номинации (1):
Золотая пальмовая ветвь

MediaInfo

Общее
Уникальный идентификатор : 227023650562024363071470397930709131774 (0xAACB2A27D2AFD17692414DABFC9B21FE)
Полное имя : K:\Video\Empire.of.Passion.1978.720p.Blu-ray.x264-UMAi.mkv
Формат : Matroska
Версия формата : Version 2
Размер файла : 8,33 Гбайт
Продолжительность : 1 ч. 45 м.
Режим общего битрейта : Переменный
Общий поток : 11,3 Мбит/сек
Дата кодирования : UTC 2012-06-10 15:43:18
Программа кодирования : mkvmerge v5.6.0 ('Kenya Kane') built on May 27 2012 16:44:04
Библиотека кодирования : libebml v1.2.3 + libmatroska v1.3.0
Видео
Идентификатор : 1
Формат : AVC
Формат/Информация : Advanced Video Codec
Профиль формата : [email protected]
Параметр CABAC формата : Да
Параметр ReFrames формата : 9 кадров
Идентификатор кодека : V_MPEG4/ISO/AVC
Продолжительность : 1 ч. 45 м.
Ширина : 1192 пикселя
Высота : 720 пикселей
Соотношение сторон : 1,656
Режим частоты кадров : Постоянный
Частота кадров : 23,976 кадра/сек
Цветовое пространство : YUV
Субдискретизация насыщенности : 4:2:0
Битовая глубина : 8 бит
Тип развёртки : Прогрессивная
Заголовок : Ai no borei / Empire of Passion (1978)
Библиотека кодирования : x264 core 120 r2164 da19765
Настройки программы : cabac=1 / ref=9 / deblock=1:-2:-2 / analyse=0x3:0x133 / me=umh / subme=10 / psy=1 / psy_rd=1.00:0.25 / mixed_ref=1 / me_range=32 / chroma_me=1 / trellis=2 / 8x8dct=1 / cqm=0 / deadzone=6,6 / fast_pskip=0 / chroma_qp_offset=-4 / threads=6 / sliced_threads=0 / nr=0 / decimate=0 / interlaced=0 / bluray_compat=0 / constrained_intra=0 / bframes=3 / b_pyramid=2 / b_adapt=2 / b_bias=0 / direct=3 / weightb=1 / open_gop=0 / weightp=2 / keyint=240 / keyint_min=23 / scenecut=40 / intra_refresh=0 / rc_lookahead=40 / rc=crf / mbtree=1 / crf=19.0 / qcomp=0.80 / qpmin=0 / qpmax=69 / qpstep=4 / ip_ratio=1.10 / aq=1:0.50
Язык : Japanese
Default : Да
Forced : Нет
Аудио #1
Идентификатор : 2
Формат : AC-3
Формат/Информация : Audio Coding 3
Расширение режима : CM (complete main)
Параметр Endianness формата : Big
Идентификатор кодека : A_AC3
Продолжительность : 1 ч. 45 м.
Вид битрейта : Постоянный
Битрейт : 256 Кбит/сек
Каналы : 2 канала
Расположение каналов : Front: L R
Частота : 48,0 КГц
Битовая глубина : 16 бит
Метод сжатия : С потерями
Размер потока : 192 Мбайт (2%)
Заголовок : DD / 2.0 / 256 kbps | DVO
Язык : Russian
Default : Да
Forced : Нет
Аудио #2
Идентификатор : 3
Формат : AC-3
Формат/Информация : Audio Coding 3
Расширение режима : CM (complete main)
Параметр Endianness формата : Big
Идентификатор кодека : A_AC3
Продолжительность : 1 ч. 45 м.
Вид битрейта : Постоянный
Битрейт : 192 Кбит/сек
Каналы : 2 канала
Расположение каналов : Front: L R
Частота : 48,0 КГц
Битовая глубина : 16 бит
Метод сжатия : С потерями
Размер потока : 144 Мбайт (2%)
Заголовок : DD / 2.0 / 192 kbps | DVO (Кармен Видео)
Язык : Russian
Default : Нет
Forced : Нет
Аудио #3
Идентификатор : 4
Формат : FLAC
Формат/Информация : Free Lossless Audio Codec
Идентификатор кодека : A_FLAC
Продолжительность : 1 ч. 45 м.
Вид битрейта : Переменный
Каналы : 2 канала
Частота : 48,0 КГц
Битовая глубина : 16 бит
Заголовок : FLAC / 2.0 / 357 kbps / 16-bit
Библиотека кодирования : libFLAC 1.2.1 (UTC 2007-09-17)
Язык : Japanese
Default : Нет
Forced : Нет
Текст #1
Идентификатор : 5
Формат : UTF-8
Идентификатор кодека : S_TEXT/UTF8
Идентификатор кодека/Информация : UTF-8 Plain Text
Язык : Russian
Default : Нет
Forced : Нет
Текст #2
Идентификатор : 6
Формат : UTF-8
Идентификатор кодека : S_TEXT/UTF8
Идентификатор кодека/Информация : UTF-8 Plain Text
Язык : English
Default : Нет
Forced : Нет
Меню
00:00:00.000 : en:00:00:00.000
00:14:04.050 : en:00:14:04.050
00:25:18.141 : en:00:25:18.141
00:35:36.843 : en:00:35:36.843
00:48:25.277 : en:00:48:25.277
01:05:42.688 : en:01:05:42.688
01:19:56.500 : en:01:19:56.500
01:31:31.360 : en:01:31:31.360
[Профиль]  [ЛС] 
Похожие темы
Форум Тема Автор Размер
Зарубежное кино 300 спартанцев: Расцвет империи / 300 Rise of an Empire (Ноам Мурро) [2014, боевик, драма, военный, WEB-DLRip-AVC] [Dub] [Лицензия (iTunes)] Lost_Mind 1,45 GB
HD 300 спартанцев: Расцвет империи / 300: Rise of an Empire BDRip 1080p Dima1981 13,85 GB
3D/Stereo фильмы 300 спартанцев: Расцвет империи в 3Д / 300 Rise of an Empire 3D (Ноам Мурро) [2014, Боевик, драма, военный, BDremux, 1080p] BD3D bot 26,78 GB
3D/Stereo фильмы 300 спартанцев: Расцвет империи в 3Д / 300: Rise of an Empire 3D (Ноам Мурро / Noam Murro) [2014, Фэнтези, Боевик, Драма, Военный, BDrip-AVC] Half OverUnder / Вертикальная анаморфная стереопара bot 9,14 GB
3D/Stereo фильмы 300 спартанцев: Расцвет империи в 3Д / 300: Rise of an Empire 3D (Ноам Мурро / Ноам Мурро / Noam Mu) [2014, фэнтези, боевик, драма, военный, BDRip-AVC] Half SideBySide / Горизонтальная анамор... bot 12,26 GB
Аудиокниги Гир Майкл - "Обломок империи" [Дамир Мударисов, Светлана Никифорова, 2012] Oldket 1,82 GB
Аудиокниги Злотников Роман - "Виват Император!" Oldket 744 MB
Зарубежное кино Император / Emperor (Питер Веббер) (2012, Драма, военный, история, BDRip (720p) anatolyi100 4,81 GB
Показать сообщения:    
Ответить на тему

Текущее время: 10-Дек 15:38

Часовой пояс: UTC + 3



Вы не можете начинать темы
Вы не можете отвечать на сообщения
Вы не можете редактировать свои сообщения
Вы не можете удалять свои сообщения
Вы не можете голосовать в опросах
Вы не можете прикреплять файлы к сообщениям
Вы не можете скачивать файлы