Империя чувств (Коррида любви) / Ai no korida [Нагиса Осима] (1976 г., Драма, эротика, BDRip 720p) AVO, DVO

Ответить на тему
Статистика раздачи [Обновить пиров]
Нет
 
   
 
 
Автор
Сообщение

mihis ®

Стаж: 2 года 1 месяц

Сообщений: 221

Создавать темы 03-Ноя-2015 15:21

[Цитировать] 

Империя чувств (Коррида любви) / Ai no korida Год выхода: 1976
Страна: Япония, Франция
Жанр: Драма, эротика
Продолжительность: 01:42:00
Перевод:
Авторский (Одноголосый, закадровый) Ю. Сербин
Профессиональный (Двухголосый, закадровый)
Профессиональный (Двухголосый, закадровый) Кармен Видео
Оригинал
Субтитры: русские, английские
Режиссер: Нагиса Осима
В ролях: Тацуя Фудзи, Эйко Мацуда, Аои Накодзима, Ясуко Мацуи, Мэйка Сэри, Канаэ Кобаяси, Тайдзи Тонояма, Киёдзи Коконоэ, Наоми Шираиши, Комикити Хори
Описание: Япония, Токио, 1936 год. Пожалуй, одна из самых эротичных и в то же время непостижимо глубоких драм о всепожирающей, выходящей из под контроля плотской страсти между молодой японкой Садой и ее хозяином, которого она в конце убивает, отрезав ему пенис.Четыре дня ходила Сада с отрезанным пенисом по улицам Токио, а когда ее арестовали, она сияла от счастья. Суд над ней потряс всю Японию, к ней проявили снисхождение, и она была оправдана, получив странную популярность.Самое интересное, что основан фильм на реальных событиях.

Качество: BDRip 720p
Формат: MKV
Видео: AVC, 9043 kbps, 1194x720 (1.658), 23.976 fps, [email protected]
Аудио#1: FLAC, 48.0 KHz, 1 ch, 302.00 kbps, VBR AVO
Аудио#2: AC3, 48.0 KHz, 2 ch, 256 Kbps, CBR DVO
Аудио#3: AC3, 48.0 KHz, 2 ch, 192 Kbps, CBR DVO
Аудио#4: FLAC, 48.0 KHz, 1 ch, 286.00 kbps, VBR Jap
Аудио#5: AC3, 48.0 KHz, 1 ch, 192 Kbps, CBR Eng, Commentary

Награды

Специальный приз за режиссуру на МКФ в Чикаго, премия Британского киноинститута, назван среди ста лучших фильмов мира по опросу ФИПРЕССИ в 1995 году.

MediaInfo

Общее
Уникальный идентификатор : 175246293229745291438358165550824880789 (0x83D7355838B43783885A2FA481AAFA95)
Полное имя : K:\Video\Imperija.Chuvstv.1976.x264.BDRip.720p.mkv
Формат : Matroska
Версия формата : Version 2
Размер файла : 7,35 Гбайт
Продолжительность : 1 ч. 42 м.
Режим общего битрейта : Переменный
Общий поток : 10,3 Мбит/сек
Название фильма : Ai no korîda (1976) - Release for HDCLUB by Skazhutin
Дата кодирования : UTC 2012-04-12 08:05:46
Программа кодирования : mkvmerge v5.5.0 ('Healer') built on Apr 6 2012 21:43:24
Библиотека кодирования : libebml v1.2.3 + libmatroska v1.3.0
Обложка : Yes
Attachment : Yes
Видео
Идентификатор : 1
Формат : AVC
Формат/Информация : Advanced Video Codec
Профиль формата : [email protected]
Параметр CABAC формата : Да
Параметр ReFrames формата : 8 кадров
Идентификатор кодека : V_MPEG4/ISO/AVC
Продолжительность : 1 ч. 42 м.
Ширина : 1194 пикселя
Высота : 720 пикселей
Соотношение сторон : 1,658
Режим частоты кадров : Постоянный
Частота кадров : 23,976 кадра/сек
Цветовое пространство : YUV
Субдискретизация насыщенности : 4:2:0
Битовая глубина : 8 бит
Тип развёртки : Прогрессивная
Заголовок : Release for HDCLUB
Библиотека кодирования : x264 core 122 r2184kMod 5c85e0a
Настройки программы : cabac=1 / ref=8 / deblock=1:-3:-3 / analyse=0x3:0x113 / me=umh / subme=11 / psy=1 / fade_compensate=0.00 / psy_rd=1.10:0.06 / mixed_ref=1 / me_range=48 / chroma_me=1 / trellis=2 / 8x8dct=1 / cqm=0 / deadzone=21,11 / fast_pskip=1 / chroma_qp_offset=-3 / threads=12 / sliced_threads=0 / nr=0 / decimate=1 / interlaced=0 / bluray_compat=0 / constrained_intra=0 / bframes=16 / b_pyramid=2 / b_adapt=2 / b_bias=0 / direct=1 / weightb=1 / open_gop=0 / weightp=2 / keyint=250 / keyint_min=23 / scenecut=40 / intra_refresh=0 / rc_lookahead=60 / rc=crf / mbtree=1 / crf=18.0000 / qcomp=0.80 / qpmin=0 / qpmax=69 / qpstep=4 / vbv_maxrate=50000 / vbv_bufsize=62500 / crf_max=0.0 / nal_hrd=none / ip_ratio=1.40 / aq=2:0.80
Язык : Japanese
Default : Да
Forced : Нет
Коэффициенты матрицы : BT.709
Аудио #1
Идентификатор : 2
Формат : FLAC
Формат/Информация : Free Lossless Audio Codec
Идентификатор кодека : A_FLAC
Продолжительность : 1 ч. 42 м.
Вид битрейта : Переменный
Каналы : 1 канал
Частота : 48,0 КГц
Битовая глубина : 16 бит
Заголовок : FLAC 1.0 @ 302 kbps - Одноголосый, Ю. Сербин
Библиотека кодирования : libFLAC 1.2.1 (UTC 2007-09-17)
Язык : Russian
Default : Да
Forced : Нет
Аудио #2
Идентификатор : 3
Формат : AC-3
Формат/Информация : Audio Coding 3
Расширение режима : CM (complete main)
Параметр Endianness формата : Big
Идентификатор кодека : A_AC3
Продолжительность : 1 ч. 42 м.
Вид битрейта : Постоянный
Битрейт : 256 Кбит/сек
Каналы : 2 канала
Расположение каналов : Front: L R
Частота : 48,0 КГц
Битовая глубина : 16 бит
Метод сжатия : С потерями
Размер потока : 188 Мбайт (2%)
Заголовок : AC3 2.0 @ 256 kbps - Двухголосый
Язык : Russian
Default : Нет
Forced : Нет
Аудио #3
Идентификатор : 4
Формат : AC-3
Формат/Информация : Audio Coding 3
Расширение режима : CM (complete main)
Параметр Endianness формата : Big
Идентификатор кодека : A_AC3
Продолжительность : 1 ч. 42 м.
Вид битрейта : Постоянный
Битрейт : 192 Кбит/сек
Каналы : 2 канала
Расположение каналов : Front: L R
Частота : 48,0 КГц
Битовая глубина : 16 бит
Метод сжатия : С потерями
Размер потока : 141 Мбайт (2%)
Заголовок : AC3 2.0 @ 192 kbps - Двухголосый, R5, Кармен Видео
Язык : Russian
Default : Нет
Forced : Нет
Аудио #4
Идентификатор : 5
Формат : FLAC
Формат/Информация : Free Lossless Audio Codec
Идентификатор кодека : A_FLAC
Продолжительность : 1 ч. 42 м.
Вид битрейта : Переменный
Каналы : 1 канал
Частота : 48,0 КГц
Битовая глубина : 16 бит
Заголовок : FLAC 1.0 @ 286 kbps
Библиотека кодирования : libFLAC 1.2.1 (UTC 2007-09-17)
Язык : Japanese
Default : Нет
Forced : Нет
Аудио #5
Идентификатор : 6
Формат : AC-3
Формат/Информация : Audio Coding 3
Расширение режима : CM (complete main)
Параметр Endianness формата : Big
Идентификатор кодека : A_AC3
Продолжительность : 1 ч. 42 м.
Вид битрейта : Постоянный
Битрейт : 192 Кбит/сек
Каналы : 1 канал
Расположение каналов : Front: C
Частота : 48,0 КГц
Битовая глубина : 16 бит
Метод сжатия : С потерями
Размер потока : 141 Мбайт (2%)
Заголовок : AC3 1.0 @ 192 kbps - Commentary
Язык : English
Default : Нет
Forced : Нет
Текст #1
Идентификатор : 7
Формат : UTF-8
Идентификатор кодека : S_TEXT/UTF8
Идентификатор кодека/Информация : UTF-8 Plain Text
Заголовок : Ю. Сербин
Язык : Russian
Default : Нет
Forced : Нет
Текст #2
Идентификатор : 8
Формат : UTF-8
Идентификатор кодека : S_TEXT/UTF8
Идентификатор кодека/Информация : UTF-8 Plain Text
Язык : English
Default : Нет
Forced : Нет
Меню
00:00:00.000 : en:Sada
00:04:04.159 : en:Old Customer
00:07:24.026 : en:Master Of The House
00:11:10.627 : en:First Time
00:14:45.467 : en:"Unusual Woman"
00:19:59.198 : en:Vision With Razor
00:22:30.932 : en:Arrival At The Inn
00:24:57.996 : en:A Wedding Ceremony
00:30:27.992 : en:"Acute Sensitivity"
00:34:29.650 : en:"It Knows You Want It"
00:37:51.268 : en:Manager Pays A Visit
00:40:31.219 : en:Sada Sees Her Patron
00:45:26.890 : en:"Slap Me"
00:50:24.146 : en:Sustenance
00:55:27.282 : en:Child's Play
00:58:07.025 : en:Kichi Sees His Wife
01:01:17.423 : en:Homecoming With Knife
01:05:21.709 : en:"Choke Me"
01:10:30.684 : en:Perverts
01:17:37.611 : en:The Outside World
01:20:25.487 : en:"Strangle Me"
01:26:59.213 : en:Approaching Death
01:29:28.529 : en:Permission
01:36:23.861 : en:"Together Forever"
[Профиль]  [ЛС] 
Похожие темы
Форум Тема Автор Размер
Зарубежное кино 300 спартанцев: Расцвет империи / 300 Rise of an Empire (Ноам Мурро) [2014, боевик, драма, военный, WEB-DLRip-AVC] [Dub] [Лицензия (iTunes)] Lost_Mind 1,45 GB
HD 300 спартанцев: Расцвет империи / 300: Rise of an Empire BDRip 1080p Dima1981 13,85 GB
3D/Stereo фильмы 300 спартанцев: Расцвет империи в 3Д / 300 Rise of an Empire 3D (Ноам Мурро) [2014, Боевик, драма, военный, BDremux, 1080p] BD3D bot 26,78 GB
3D/Stereo фильмы 300 спартанцев: Расцвет империи в 3Д / 300: Rise of an Empire 3D (Ноам Мурро / Noam Murro) [2014, Фэнтези, Боевик, Драма, Военный, BDrip-AVC] Half OverUnder / Вертикальная анаморфная стереопара bot 9,14 GB
3D/Stereo фильмы 300 спартанцев: Расцвет империи в 3Д / 300: Rise of an Empire 3D (Ноам Мурро / Ноам Мурро / Noam Mu) [2014, фэнтези, боевик, драма, военный, BDRip-AVC] Half SideBySide / Горизонтальная анамор... bot 12,26 GB
Аудиокниги Гир Майкл - "Обломок империи" [Дамир Мударисов, Светлана Никифорова, 2012] Oldket 1,82 GB
Аудиокниги Злотников Роман - "Виват Император!" Oldket 744 MB
Зарубежное кино Император / Emperor (Питер Веббер) (2012, Драма, военный, история, BDRip (720p) anatolyi100 4,81 GB
Показать сообщения:    
Ответить на тему

Текущее время: 10-Дек 11:49

Часовой пояс: UTC + 3



Вы не можете начинать темы
Вы не можете отвечать на сообщения
Вы не можете редактировать свои сообщения
Вы не можете удалять свои сообщения
Вы не можете голосовать в опросах
Вы не можете прикреплять файлы к сообщениям
Вы не можете скачивать файлы