Мертвый штиль (Мертвый омут) / Dead Calm (Филлип Нойс) [1989 г., Триллер, драма, BDRip 720p] MVO, Dub, AVO

Ответить на тему
Статистика раздачи [Обновить пиров]
Скачал: [ 1 ]
 
   
 
 
Автор
Сообщение

mihis ®

Стаж: 2 года 1 месяц

Сообщений: 221

Создавать темы 03-Ноя-2015 15:29

[Цитировать] 

Мертвый штиль (Мертвый омут) / Dead Calm«Попытайтесь сохранить присутствие духа» Год выпуска: 1989
Страна: Австралия, Kennedy Miller Productions
Жанр: Триллер, драма
Продолжительность: 01:36:20
Перевод:
Профессиональный (многоголосый, закадровый) Карусель
Профессиональный (полное дублирование) Варус-Видео
Авторский (одноголосый, закадровый) А.Гаврилов
Оригинал
Субтитры: Русские, английские
Режиссер: Филлип Нойс
В ролях: Николь Кидман, Сэм Нилл, Билли Зейн, Род Муллинар, Джошуа Тильден, Джордж Шевцов, Майкл Лонг, Лиза Коллинз, Паула Хадсон-Бринкли, Шэрон Кук
Описание: Супружеская пара, приходящая в себя после трагической потери сына, отправилась на яхте в море. У них нет определенной цели путешествия. Они подбирают незнакомца в шлюпке, котрый рассказывает невероятную историю о том, как он спасся с затонувшего корабля. Любознательный муж отправляется на лодке осмотреть брошенное судно и находит там такое, что волосы встают дыбом. А незнакомец, тем временем, начинает вести себя совсем не так, как подобает гостю... Экранизация по произведению Чарльза Уильямса.

Качество: BDRip 720p
Формат: MKV
Видео кодек: H264
Аудио кодек: AC3
Видео: AVC, 1280x532 (2.40:1), 23.976 fps, 6 308 Kbps (0.386 bit/pixel)
Аудио #1: 48 kHz, AC3 2 канала(ов), ~640.00 kbps avg MVO Карусель
Аудио #2: 48 kHz, AC3 2 канала(ов), ~448.00 kbps avg Dub Варус-Видео
Аудио #3: 48 kHz, AC3 2 канала(ов), ~192.00 kbps avg AVO А.Гаврилов
Аудио #4: 48 kHz, AC3 2 канала(ов), ~192.00 kbps avg Eng

Награды

Сатурн, 1991 год
Номинации (1):
Лучшая актриса (Николь Кидман)

MediaInfo

Общее
Уникальный идентификатор : 199467133116132139426342759025046753007 (0x960FF8F311BE7EB89590346A3CC08EEF)
Полное имя : E:\Video\Dead.Calm.1989.720p.BluRay.3xRus.Eng.mkv
Формат : Matroska
Версия формата : Version 2
Размер файла : 5,24 Гбайт
Продолжительность : 1 ч. 36 м.
Общий поток : 7775 Кбит/сек
Название фильма : Dead Calm (1989) - Release for HDCLUB
Дата кодирования : UTC 2009-11-27 19:34:30
Программа кодирования : mkvmerge v2.9.7 ('Tenderness') built on Jul 1 2009 18:43:35
Библиотека кодирования : libebml v0.7.7 + libmatroska v0.8.1
Видео
Идентификатор : 1
Формат : AVC
Формат/Информация : Advanced Video Codec
Профиль формата : [email protected]
Параметр CABAC формата : Да
Параметр ReFrames формата : 6 кадров
Идентификатор кодека : V_MPEG4/ISO/AVC
Продолжительность : 1 ч. 36 м.
Битрейт : 6308 Кбит/сек
Ширина : 1280 пикселей
Высота : 532 пикселя
Соотношение сторон : 2,40:1
Режим частоты кадров : Постоянный
Частота кадров : 23,976 кадра/сек
Цветовое пространство : YUV
Субдискретизация насыщенности : 4:2:0
Битовая глубина : 8 бит
Тип развёртки : Прогрессивная
Бит/(Пиксели*Кадры) : 0.386
Размер потока : 4,14 Гбайт (79%)
Заголовок : Release for HDCLUB
Библиотека кодирования : x264 core 79 r1332M 70f8869
Настройки программы : cabac=1 / ref=6 / deblock=1:-3:-3 / analyse=0x3:0x113 / me=umh / subme=10 / psy=1 / psy_rd=0.9:0.0 / mixed_ref=1 / me_range=32 / chroma_me=1 / trellis=2 / 8x8dct=1 / cqm=0 / deadzone=21,11 / chroma_qp_offset=-2 / threads=6 / nr=0 / decimate=1 / mbaff=0 / constrained_intra=0 / bframes=8 / b_pyramid=0 / b_adapt=2 / b_bias=0 / direct=3 / wpredb=1 / wpredp=2 / keyint=250 / keyint_min=25 / scenecut=40 / rc=2pass / mbtree=0 / bitrate=6308 / ratetol=1.0 / qcomp=0.60 / qpmin=10 / qpmax=51 / qpstep=4 / cplxblur=20.0 / qblur=0.5 / ip_ratio=1.40 / pb_ratio=1.30 / aq=1:0.60
Язык : English
Default : Да
Forced : Нет
Аудио #1
Идентификатор : 2
Формат : AC-3
Формат/Информация : Audio Coding 3
Расширение режима : CM (complete main)
Параметр Endianness формата : Big
Идентификатор кодека : A_AC3
Продолжительность : 1 ч. 36 м.
Вид битрейта : Постоянный
Битрейт : 640 Кбит/сек
Каналы : 2 канала
Расположение каналов : Front: L R
Частота : 48,0 КГц
Битовая глубина : 16 бит
Метод сжатия : С потерями
Размер потока : 441 Мбайт (8%)
Заголовок : AC3 2.0 @ 640 kbps - Многоголосый, закадровый - Карусель
Язык : Russian
Default : Да
Forced : Нет
Аудио #2
Идентификатор : 3
Формат : AC-3
Формат/Информация : Audio Coding 3
Расширение режима : CM (complete main)
Параметр Endianness формата : Big
Идентификатор кодека : A_AC3
Продолжительность : 1 ч. 36 м.
Вид битрейта : Постоянный
Битрейт : 448 Кбит/сек
Каналы : 2 канала
Расположение каналов : Front: L R
Частота : 48,0 КГц
Битовая глубина : 16 бит
Метод сжатия : С потерями
Размер потока : 309 Мбайт (6%)
Заголовок : AC3 2.0 @ 448 kbps - Дублированный
Язык : Russian
Default : Нет
Forced : Нет
Аудио #3
Идентификатор : 4
Формат : AC-3
Формат/Информация : Audio Coding 3
Профиль формата : Dolby Digital
Расширение режима : CM (complete main)
Параметр Endianness формата : Big
Идентификатор кодека : A_AC3
Продолжительность : 1 ч. 36 м.
Вид битрейта : Постоянный
Битрейт : 192 Кбит/сек
Каналы : 2 канала
Расположение каналов : Front: L R
Частота : 48,0 КГц
Битовая глубина : 16 бит
Метод сжатия : С потерями
Размер потока : 132 Мбайт (2%)
Заголовок : AC3 2.0 @ 192 kbps - Одноголосый, закадровый - А.Гаврилов
Язык : Russian
Default : Нет
Forced : Нет
Аудио #4
Идентификатор : 5
Формат : AC-3
Формат/Информация : Audio Coding 3
Профиль формата : Dolby Digital
Расширение режима : CM (complete main)
Параметр Endianness формата : Big
Идентификатор кодека : A_AC3
Продолжительность : 1 ч. 36 м.
Вид битрейта : Постоянный
Битрейт : 192 Кбит/сек
Каналы : 2 канала
Расположение каналов : Front: L R
Частота : 48,0 КГц
Битовая глубина : 16 бит
Метод сжатия : С потерями
Размер потока : 132 Мбайт (2%)
Заголовок : AC3 2.0 @ 192 kbps
Язык : English
Default : Нет
Forced : Нет
Текст #1
Идентификатор : 6
Формат : UTF-8
Идентификатор кодека : S_TEXT/UTF8
Идентификатор кодека/Информация : UTF-8 Plain Text
Язык : Russian
Default : Да
Forced : Нет
Текст #2
Идентификатор : 7
Формат : UTF-8
Идентификатор кодека : S_TEXT/UTF8
Идентификатор кодека/Информация : UTF-8 Plain Text
Язык : English
Default : Нет
Forced : Нет
[Профиль]  [ЛС] 
Похожие темы
Форум Тема Автор Размер
FPS (1st Person) S.T.A.L.K.E.R.: Shadow of Chernobyl - Народная Солянка + Мёртвый Город + ООП + Коллекционер (2012) PC | RePack by SeregA-Lus Тоха™ 6,32 GB
Аудиокниги Берг Николай - Эпоха мёртвых."Мы из Кронштадта. Подотдел коммунхоза по очистке от бродячих морфов"Книга 1 [sikth, 2013] Oldket 842 MB
Аудиокниги Берг Николай - Эпоха мёртвых."Ночная смена" [sikth, 2012] Oldket 2,04 GB
Аудиокниги Круз Андрей - "Эпоха мёртвых. Я еду домой!" Книга третья [Один, 2011] Oldket 1,44 GB
Аудиокниги Круз Андрей-"Эпоха мертвых.Москва" Oldket 893 MB
Аудиокниги Круз Андрей-"Эпоха мертвых.Начало" Oldket 980 MB
Аудиокниги Круз Андрей-"Эпоха мертвых.Прорыв" Oldket 1,05 GB
Аудиокниги Круз Андрей-"Эпоха мертвых.Я еду домой!"Книга вторая."От чужих берегов" [Один, 2011] Oldket 1,19 GB
Показать сообщения:    
Ответить на тему

Текущее время: 08-Дек 17:05

Часовой пояс: UTC + 3



Вы не можете начинать темы
Вы не можете отвечать на сообщения
Вы не можете редактировать свои сообщения
Вы не можете удалять свои сообщения
Вы не можете голосовать в опросах
Вы не можете прикреплять файлы к сообщениям
Вы не можете скачивать файлы