Офицер и джентльмен / An Officer and a Gentleman [Тейлор Хэкфорд] (1982 г., Драма, мелодрама, BDRip 720p) MVO, AVO

Ответить на тему
Статистика раздачи [Обновить пиров]
Нет
 
   
 
 
Автор
Сообщение

mihis ®

Стаж: 2 года 1 месяц

Сообщений: 221

Создавать темы 03-Ноя-2015 15:33

[Цитировать] 

Офицер и джентльмен / An Officer and a Gentleman«It will lift you up where you belong» Год выхода: 1982
Страна: США, Lorimar Film Entertainment
Жанр: Драма, мелодрама
Продолжительность: 02:04:17
Перевод: Профессиональный (многоголосый, закадровый) + Авторский (одноголосый, закадровый) А.Гаврилов, В.Горчаков, Ю.Живов, А.Михалёв + Оригинал
Субтитры: Русские, английские
Режиссер: Тейлор Хэкфорд
В ролях: Ричард Гир, Дебра Уингер, Дэвид Кит, Роберт Лоджа, Лиза Блаунт, Лиза Айлбакер, Луис Госсет мл., Тони Плана, Гарольд Сильвестр, Дэвид Карузо, Виктор Френч, Грэйс Забриски, Томми Петерсен, Дэвид Гринфилд, Дэннис Ракер, Джейн Вилбур, Верн Тейлор, Элизабет Роджерс, Дэвид Р. Маршалл, Гари С. Стиллвелл, Ти Деннард, Норберт М. Мюррэй, Дэниэл Тайлер, Уильям С. Грейвз, Брайан Д. Форд, Майкл С. Пейви, Кейт Дж. Хаар, Пиа Бойер, Джон Лофлин, Джеффри П. Рондо, Майкл Ли Болджер, Марк Л. Грейвз, Джо Анна Кин, Эд Бегли мл.
Описание: Зак Мэйо поступает в военное училище, готовящее пилотов морской авиации. Даже в страшных снах не могло привидеться ему, через какой ад придётся пройти, когда за него возьмется жестокий инструктор Фоули. После трёх месяцев невыносимой муштры Зак вполне прочувствовал, что такое армейская дисциплина. Несмотря на все предупреждения о коварстве местных девушек, якобы только и мечтающих, как бы заполучить себе в мужья лётчика, Зак влюбляется в одну из них. Несмотря на все препятствия, герой фильма всё же станет превосходным офицером и обретёт настоящую любовь.

Качество: BDRip 720p
Формат: MKV
Видео кодек: H264
Аудио кодек: AC3
Видео: MPEG-4 AVC, 8444 Кбит/с, 1280x720, 23.976 кадр/с
Аудио#1: AC3, 192 kbps, 2 ch, 48 kHz MVO
Аудио#2: AC3, 192 kbps, 2 ch, 48 kHz AVO А.Гаврилов
Аудио#3: AC3, 192 kbps, 2 ch, 48 kHz AVO В.Горчаков
Аудио#4: AC3, 448 kbps, 6 ch, 48 kHz AVO Ю.Живов
Аудио#5: AC3, 192 kbps, 2 ch, 48 kHz AVO А.Михалёв
Аудио#6: AC3, 448 kbps, 6 ch, 48 kHz Eng

MediaInfo

Общее
Уникальный идентификатор : 207425568461355827330865895894485416356 (0x9C0CB61B3D104A9B9306E602740DB9A4)
Полное имя : D:VideoOfficer i Gentleman.1982.BDRip.720p.mkv
Формат : Matroska
Версия формата : Version 4 / Version 2
Размер файла : 8,95 Гбайт
Продолжительность : 2 ч. 4 м.
Общий поток : 10,3 Мбит/сек
Дата кодирования : UTC 2015-01-20 07:26:46
Программа кодирования : mkvmerge v7.5.0 ('Glass Culture') 64bit built on Jan 4 2015 16:48:44
Библиотека кодирования : libebml v1.3.1 + libmatroska v1.4.2
_STATISTICS_WRITING_APP : mkvmerge v7.5.0 ('Glass Culture') 64bit built on Jan 4 2015 16:48:44
_STATISTICS_WRITING_DATE_UTC : 2015-01-20 07:26:46
_STATISTICS_TAGS : BPS DURATION NUMBER_OF_FRAMES NUMBER_OF_BYTES
DURATION : 02:04:15.296000000
NUMBER_OF_FRAMES : 232978
NUMBER_OF_BYTES : 417496576
Видео
Идентификатор : 1
Формат : AVC
Формат/Информация : Advanced Video Codec
Профиль формата : [email protected]
Параметр CABAC формата : Да
Параметр ReFrames формата : 9 кадров
Идентификатор кодека : V_MPEG4/ISO/AVC
Продолжительность : 2 ч. 4 м.
Битрейт : 8444 Кбит/сек
Ширина : 1280 пикселей
Высота : 720 пикселей
Соотношение сторон : 16:9
Режим частоты кадров : Постоянный
Частота кадров : 23,976 кадра/сек
Цветовое пространство : YUV
Субдискретизация насыщенности : 4:2:0
Битовая глубина : 8 бит
Тип развёртки : Прогрессивная
Бит/(Пиксели*Кадры) : 0.382
Размер потока : 7,33 Гбайт (82%)
Заголовок : BDRip -- STarankov
Библиотека кодирования : x264 core 142 r2431 ac76440
Настройки программы : cabac=1 / ref=9 / deblock=1:-1:-1 / analyse=0x3:0x113 / me=umh / subme=10 / psy=1 / psy_rd=1.00:0.15 / mixed_ref=1 / me_range=32 / chroma_me=1 / trellis=2 / 8x8dct=1 / cqm=0 / deadzone=21,11 / fast_pskip=1 / chroma_qp_offset=-3 / threads=6 / lookahead_threads=1 / sliced_threads=0 / nr=0 / decimate=1 / interlaced=0 / bluray_compat=0 / constrained_intra=0 / bframes=8 / b_pyramid=2 / b_adapt=2 / b_bias=0 / direct=3 / weightb=1 / open_gop=0 / weightp=2 / keyint=230 / keyint_min=23 / scenecut=40 / intra_refresh=0 / rc_lookahead=40 / rc=crf / mbtree=0 / crf=18.0 / qcomp=0.60 / qpmin=0 / qpmax=69 / qpstep=4 / vbv_maxrate=40000 / vbv_bufsize=50000 / crf_max=0.0 / nal_hrd=none / filler=0 / ip_ratio=1.40 / pb_ratio=1.30 / aq=1:1.00
Язык : English
Default : Да
Forced : Нет
_STATISTICS_WRITING_APP : mkvmerge v7.5.0 ('Glass Culture') 64bit built on Jan 4 2015 16:48:44
_STATISTICS_WRITING_DATE_UTC : 2015-01-20 07:26:46
_STATISTICS_TAGS : BPS DURATION NUMBER_OF_FRAMES NUMBER_OF_BYTES
DURATION : 02:04:17.075000000
NUMBER_OF_FRAMES : 178791
NUMBER_OF_BYTES : 8059280647
Аудио #1
Идентификатор : 2
Формат : AC-3
Формат/Информация : Audio Coding 3
Расширение режима : CM (complete main)
Параметр Endianness формата : Big
Идентификатор кодека : A_AC3
Продолжительность : 2 ч. 4 м.
Вид битрейта : Постоянный
Битрейт : 192 Кбит/сек
Каналы : 2 канала
Расположение каналов : Front: L R
Частота : 48,0 КГц
Битовая глубина : 16 бит
Метод сжатия : С потерями
Размер потока : 171 Мбайт (2%)
Заголовок : MVO
Язык : Russian
Default : Да
Forced : Нет
Аудио #2
Идентификатор : 3
Формат : AC-3
Формат/Информация : Audio Coding 3
Расширение режима : CM (complete main)
Параметр Endianness формата : Big
Идентификатор кодека : A_AC3
Продолжительность : 2 ч. 4 м.
Вид битрейта : Постоянный
Битрейт : 192 Кбит/сек
Каналы : 2 канала
Расположение каналов : Front: L R
Частота : 48,0 КГц
Битовая глубина : 16 бит
Метод сжатия : С потерями
Размер потока : 171 Мбайт (2%)
Заголовок : AVO (Андрей Гаврилов)
Язык : Russian
Default : Нет
Forced : Нет
Аудио #3
Идентификатор : 4
Формат : AC-3
Формат/Информация : Audio Coding 3
Расширение режима : CM (complete main)
Параметр Endianness формата : Big
Идентификатор кодека : A_AC3
Продолжительность : 2 ч. 4 м.
Вид битрейта : Постоянный
Битрейт : 192 Кбит/сек
Каналы : 2 канала
Расположение каналов : Front: L R
Частота : 48,0 КГц
Битовая глубина : 16 бит
Метод сжатия : С потерями
Размер потока : 171 Мбайт (2%)
Заголовок : AVO (Василий Горчаков)
Язык : Russian
Default : Нет
Forced : Нет
Аудио #4
Идентификатор : 5
Формат : AC-3
Формат/Информация : Audio Coding 3
Расширение режима : CM (complete main)
Параметр Endianness формата : Big
Идентификатор кодека : A_AC3
Продолжительность : 2 ч. 4 м.
Вид битрейта : Постоянный
Битрейт : 448 Кбит/сек
Каналы : 6 каналов
Расположение каналов : Front: L C R, Side: L R, LFE
Частота : 48,0 КГц
Битовая глубина : 16 бит
Метод сжатия : С потерями
Размер потока : 398 Мбайт (4%)
Заголовок : AVO (Юрий Живов)
Язык : Russian
Default : Нет
Forced : Нет
Аудио #5
Идентификатор : 6
Формат : AC-3
Формат/Информация : Audio Coding 3
Расширение режима : CM (complete main)
Параметр Endianness формата : Big
Идентификатор кодека : A_AC3
Продолжительность : 2 ч. 4 м.
Вид битрейта : Постоянный
Битрейт : 192 Кбит/сек
Каналы : 2 канала
Расположение каналов : Front: L R
Частота : 48,0 КГц
Битовая глубина : 16 бит
Метод сжатия : С потерями
Размер потока : 171 Мбайт (2%)
Заголовок : AVO (Алексей Михалёв)
Язык : Russian
Default : Нет
Forced : Нет
Аудио #6
Идентификатор : 7
Формат : AC-3
Формат/Информация : Audio Coding 3
Расширение режима : CM (complete main)
Параметр Endianness формата : Big
Идентификатор кодека : A_AC3
Продолжительность : 2 ч. 4 м.
Вид битрейта : Постоянный
Битрейт : 448 Кбит/сек
Каналы : 6 каналов
Расположение каналов : Front: L C R, Side: L R, LFE
Частота : 48,0 КГц
Битовая глубина : 16 бит
Метод сжатия : С потерями
Размер потока : 398 Мбайт (4%)
Заголовок : Original
Язык : English
Default : Нет
Forced : Нет
Текст #1
Идентификатор : 8
Формат : UTF-8
Идентификатор кодека : S_TEXT/UTF8
Идентификатор кодека/Информация : UTF-8 Plain Text
Заголовок : русский
Язык : Russian
Default : Нет
Forced : Нет
Текст #2
Идентификатор : 9
Формат : UTF-8
Идентификатор кодека : S_TEXT/UTF8
Идентификатор кодека/Информация : UTF-8 Plain Text
Заголовок : английский
Default : Нет
Forced : Нет
Меню #1
00:00:00.000 : en:00:00:00.000
00:09:01.791 : en:00:09:01.791
00:15:51.784 : en:00:15:51.784
00:21:15.566 : en:00:21:15.566
00:29:42.280 : en:00:29:42.280
00:38:29.641 : en:00:38:29.641
00:49:59.997 : en:00:49:59.997
00:56:12.286 : en:00:56:12.286
01:05:24.379 : en:01:05:24.379
01:17:03.118 : en:01:17:03.118
01:28:15.290 : en:01:28:15.290
01:30:52.280 : en:01:30:52.280
01:48:31.755 : en:01:48:31.755
01:54:55.514 : en:01:54:55.514
01:59:41.716 : en:01:59:41.716
Меню #2
00:00:00.000 : :00:00:00.000
00:09:02.834 : :00:09:02.834
00:15:52.827 : :00:15:52.827
00:21:16.609 : :00:21:16.609
00:29:43.323 : :00:29:43.323
00:38:30.683 : :00:38:30.683
00:50:01.040 : :00:50:01.040
00:56:13.328 : :00:56:13.328
01:05:25.463 : :01:05:25.463
01:17:04.161 : :01:17:04.161
01:28:16.333 : :01:28:16.333
01:30:51.154 : :01:30:51.154
01:48:32.798 : :01:48:32.798
01:54:56.556 : :01:54:56.556
01:59:42.759 : :01:59:42.759

Награды

Британская академия, 1984 год
Победитель (1):
Лучшая песня — «Up Where We Belong»
Номинации (1):
Лучший саундтрек
Оскар, 1983 год
Победитель (2):
Лучшая мужская роль второго плана (Луис Госсет мл.)
Лучшая песня — «Up Where We Belong»
Номинации (4):
Лучшая женская роль (Дебра Уингер)
Лучший сценарий
Лучший монтаж
Лучший оригинальный саундтрек
Золотой глобус, 1983 год
Победитель (2):
Лучшая мужская роль второго плана (Луис Госсет мл.)
Лучшая песня — «Up Where We Belong»
Номинации (6):
Лучший фильм (драма)
Лучшая мужская роль (драма) (Ричард Гир)
Лучшая женская роль (драма) (Дебра Уингер)
Лучшая мужская роль второго плана (Дэвид Кит)
Мужской прорыв года (Дэвид Кит)
Женский прорыв года (Лиза Блаунт)
[Профиль]  [ЛС] 
Похожие темы
Форум Тема Автор Размер
Отечественные сериалы Офицерские жены / Сезон: 1 / Серии: 1-12 из 12 (Дмитрий Петрунь) [2015, Драма, семейный, WEB-DLRip] Олег_SevStar 7,19 GB
Показать сообщения:    
Ответить на тему

Текущее время: 04-Дек 00:45

Часовой пояс: UTC + 3



Вы не можете начинать темы
Вы не можете отвечать на сообщения
Вы не можете редактировать свои сообщения
Вы не можете удалять свои сообщения
Вы не можете голосовать в опросах
Вы не можете прикреплять файлы к сообщениям
Вы не можете скачивать файлы