Путь Карлито / Carlito's Way [Брайан Де Пальма] (1993 г., Триллер, драма, криминал , BDRip 720p) MVO,AVO,DVO

Ответить на тему
Статистика раздачи [Обновить пиров]
Скачал: [ 1 ]
 
   
 
 
Автор
Сообщение

mihis ®

Стаж: 2 года 1 месяц

Сообщений: 221

Создавать темы 03-Ноя-2015 15:49

[Цитировать] 

Путь Карлито / Carlito's Way Год выхода: 1993
Страна: США, Bregman/Baer Productions, Epic Productions, Universal Pictures
Жанр: Триллер, драма, криминал
Продолжительность: 02:24:03
Перевод:
Профессиональный (Многоголосый, закадровый) R5
Оригинал
Профессиональный (Многоголосый, закадровый) Киномания
Профессиональный (Многоголосый, закадровый) Позитив
Авторский (Одноголосый, закадровый) Гаврилов
Профессиональный (Двухголосый, закадровый) П.Гланц и И.Королева
Авторский (Одноголосый, закадровый) Живов
Субтитры: русские, английские
Режиссер: Брайан Де Пальма
В ролях: Аль Пачино, Шон Пенн, Пенелопа Энн Миллер, Джон Легуизамо, Ингрид Роджерс, Луис Гузман, Джеймс Ребхорн, Джозеф Сираво, Вигго Мортенсен, Ричард Форонджи
Описание: 70-е годы. Крупный наркоделец Карлито Бриганте вышел из тюрьмы, где отбыл пять лет. Теперь, возвращаясь в испанский квартал Нью-Йорка к любимой женщине, он хочет все бросить и начать честную жизнь. Однако криминальное прошлое и просьба близкого друга, адвоката Клейнфилда, ввязавшегося в опасную авантюру, неудержимо тянут Карлито в пучину гибели…

Качество: BDRip 720p
Формат: MKV
Видео: AVC, 1280x544 (2.35:1), 23.976 fps, 4 858 Kbps (0.291 bit/pixel)
Аудио#1: AC3, 48.0 KHz, 6 ch, 384 Kbps, CBR MVO R5
Аудио#2: AC3, 48.0 KHz, 6 ch, 384 Kbps, CBR Eng
Аудио#3: AC3, 48.0 KHz, 6 ch, 384 Kbps, CBR MVO Киномания
Аудио#4: AC3, 48.0 KHz, 6 ch, 384 Kbps, CBR MVO Позитив
Аудио#5: AC3, 48.0 KHz, 6 ch, 384 Kbps, CBR AVO Гаврилов
Аудио#6: AC3, 48.0 KHz, 6 ch, 384 Kbps, CBR DVO П.Гланц и И.Королева
Аудио#7: AC3, 48.0 KHz, 6 ch, 384 Kbps, CBR AVO Живов

Награды

Золотой глобус, 1994 год
Номинации (2):
Лучшая мужская роль второго плана (Шон Пенн)
Лучшая женская роль второго плана (Пенелопа Энн Миллер)

MediaInfo

Общее
Уникальный идентификатор : 220496557036839436794699080157645449582 (0xA5E2179950AE733BA440A30FEDA3296E)
Полное имя : I:\Video\Путь Карлито (1993) [720p] BDRip-AVC.mkv
Формат : Matroska
Версия формата : Version 2
Размер файла : 7,75 Гбайт
Продолжительность : 2 ч. 24 м.
Режим общего битрейта : Переменный
Общий поток : 7699 Кбит/сек
Название фильма : Carlito's Way (1993)
Дата кодирования : UTC 2010-06-08 06:41:25
Программа кодирования : mkvmerge v3.3.0 ('Language') built on Mar 24 2010 14:59:24
Библиотека кодирования : libebml v0.8.0 + libmatroska v0.9.0
Видео
Идентификатор : 1
Формат : AVC
Формат/Информация : Advanced Video Codec
Профиль формата : [email protected]
Параметр CABAC формата : Да
Параметр ReFrames формата : 6 кадров
Идентификатор кодека : V_MPEG4/ISO/AVC
Продолжительность : 2 ч. 24 м.
Вид битрейта : Переменный
Битрейт : 4858 Кбит/сек
Максимальный битрейт : 5010 Кбит/сек
Ширина : 1280 пикселей
Высота : 544 пикселя
Соотношение сторон : 2,35:1
Режим частоты кадров : Постоянный
Частота кадров : 23,976 кадра/сек
Цветовое пространство : YUV
Субдискретизация насыщенности : 4:2:0
Битовая глубина : 8 бит
Тип развёртки : Прогрессивная
Бит/(Пиксели*Кадры) : 0.291
Размер потока : 4,89 Гбайт (63%)
Заголовок : Encoded by GYN
Default : Да
Forced : Нет
Аудио #1
Идентификатор : 2
Формат : AC-3
Формат/Информация : Audio Coding 3
Расширение режима : CM (complete main)
Параметр Endianness формата : Big
Идентификатор кодека : A_AC3
Продолжительность : 2 ч. 24 м.
Вид битрейта : Постоянный
Битрейт : 384 Кбит/сек
Каналы : 6 каналов
Расположение каналов : Front: L C R, Side: L R, LFE
Частота : 48,0 КГц
Битовая глубина : 16 бит
Метод сжатия : С потерями
Размер потока : 396 Мбайт (5%)
Заголовок : MVO
Язык : Russian
Default : Да
Forced : Нет
Аудио #2
Идентификатор : 3
Формат : AC-3
Формат/Информация : Audio Coding 3
Расширение режима : CM (complete main)
Параметр Endianness формата : Big
Идентификатор кодека : A_AC3
Продолжительность : 2 ч. 24 м.
Вид битрейта : Постоянный
Битрейт : 384 Кбит/сек
Каналы : 6 каналов
Расположение каналов : Front: L C R, Side: L R, LFE
Частота : 48,0 КГц
Битовая глубина : 16 бит
Метод сжатия : С потерями
Размер потока : 396 Мбайт (5%)
Заголовок : Original
Язык : English
Default : Нет
Forced : Нет
Аудио #3
Идентификатор : 4
Формат : AC-3
Формат/Информация : Audio Coding 3
Расширение режима : CM (complete main)
Параметр Endianness формата : Big
Идентификатор кодека : A_AC3
Продолжительность : 2 ч. 24 м.
Вид битрейта : Постоянный
Битрейт : 384 Кбит/сек
Каналы : 6 каналов
Расположение каналов : Front: L C R, Side: L R, LFE
Частота : 48,0 КГц
Битовая глубина : 16 бит
Метод сжатия : С потерями
Размер потока : 396 Мбайт (5%)
Заголовок : MVO
Язык : Russian
Default : Нет
Forced : Нет
Аудио #4
Идентификатор : 5
Формат : AC-3
Формат/Информация : Audio Coding 3
Расширение режима : CM (complete main)
Параметр Endianness формата : Big
Идентификатор кодека : A_AC3
Продолжительность : 2 ч. 24 м.
Вид битрейта : Постоянный
Битрейт : 384 Кбит/сек
Каналы : 6 каналов
Расположение каналов : Front: L C R, Side: L R, LFE
Частота : 48,0 КГц
Битовая глубина : 16 бит
Метод сжатия : С потерями
Размер потока : 396 Мбайт (5%)
Заголовок : MVO
Язык : Russian
Default : Нет
Forced : Нет
Аудио #5
Идентификатор : 6
Формат : AC-3
Формат/Информация : Audio Coding 3
Расширение режима : CM (complete main)
Параметр Endianness формата : Big
Идентификатор кодека : A_AC3
Продолжительность : 2 ч. 24 м.
Вид битрейта : Постоянный
Битрейт : 384 Кбит/сек
Каналы : 6 каналов
Расположение каналов : Front: L C R, Side: L R, LFE
Частота : 48,0 КГц
Битовая глубина : 16 бит
Метод сжатия : С потерями
Размер потока : 396 Мбайт (5%)
Заголовок : AVO (Gavrilov)
Язык : Russian
Default : Нет
Forced : Нет
Аудио #6
Идентификатор : 7
Формат : AC-3
Формат/Информация : Audio Coding 3
Расширение режима : CM (complete main)
Параметр Endianness формата : Big
Идентификатор кодека : A_AC3
Продолжительность : 2 ч. 24 м.
Вид битрейта : Постоянный
Битрейт : 384 Кбит/сек
Каналы : 6 каналов
Расположение каналов : Front: L C R, Side: L R, LFE
Частота : 48,0 КГц
Битовая глубина : 16 бит
Метод сжатия : С потерями
Размер потока : 396 Мбайт (5%)
Заголовок : AVO (Glanz)
Язык : Russian
Default : Нет
Forced : Нет
Аудио #7
Идентификатор : 8
Формат : AC-3
Формат/Информация : Audio Coding 3
Расширение режима : CM (complete main)
Параметр Endianness формата : Big
Идентификатор кодека : A_AC3
Продолжительность : 2 ч. 24 м.
Вид битрейта : Постоянный
Битрейт : 384 Кбит/сек
Каналы : 6 каналов
Расположение каналов : Front: L C R, Side: L R, LFE
Частота : 48,0 КГц
Битовая глубина : 16 бит
Метод сжатия : С потерями
Размер потока : 396 Мбайт (5%)
Заголовок : AVO (Zhivov)
Язык : Russian
Default : Нет
Forced : Нет
Текст #1
Идентификатор : 9
Формат : UTF-8
Идентификатор кодека : S_TEXT/UTF8
Идентификатор кодека/Информация : UTF-8 Plain Text
Язык : Russian
Default : Нет
Forced : Нет
Текст #2
Идентификатор : 10
Формат : UTF-8
Идентификатор кодека : S_TEXT/UTF8
Идентификатор кодека/Информация : UTF-8 Plain Text
Язык : English
Default : Нет
Forced : Нет
[Профиль]  [ЛС] 
Показать сообщения:    
Ответить на тему

Текущее время: 04-Дек 11:09

Часовой пояс: UTC + 3



Вы не можете начинать темы
Вы не можете отвечать на сообщения
Вы не можете редактировать свои сообщения
Вы не можете удалять свои сообщения
Вы не можете голосовать в опросах
Вы не можете прикреплять файлы к сообщениям
Вы не можете скачивать файлы