Тайны исповеди / True Confessions [Улу Гросбард] (1981 г., Драма, криминал, BDRip 720p) MVO, DVO

Ответить на тему
Статистика раздачи [Обновить пиров]
Скачал: [ 1 ]
 
   
 
 
Автор
Сообщение

mihis ®

Стаж: 2 года 1 месяц

Сообщений: 221

Создавать темы 03-Ноя-2015 15:53

[Цитировать] 

Тайны исповеди / True Confessions Год выхода: 1981
Страна: США, Chartoff-Winkler Productions
Жанр: Драма, криминал
Продолжительность: 01:48:06
Перевод: Профессиональный (многоголосый, закадровый) + Профессиональный (двухголосый, закадровый) НТВ + + Оригинал
Субтитры: Русские, английские
Режиссер: Улу Гросбард
В ролях: Роберт Де Ниро, Роберт Дювалл, Чарльз Дёрнинг, Кеннет МакМиллан, Эд Флэндерс, Сирил Кьюсак, Бёрджесс Мередит, Роуз Грегорио, Дэн Хедайя, Гвен Ван Дам
Описание: Два великих актёра Роберт Де Ниро и Роберт Дюваль играют роли двух братьев, ищущих таинственного убийцу, чья жестокость не укладывается в рамки обычного понимания — тело жертвы разрезано пополам. Расследуя это зверское убийство юной проститутки, офицер полиции Том приезжает в город, где живёт его брат священник монсеньер Десмонд Спелласи. В деле оказываются замешанными самые уважаемые люди города, жертвующие огромные деньги на благотворительность и церковь. Так или иначе, но и священник, и полицейский тоже втягиваются в эту грязную игру, где запах денег отравляет души всех смертных.

Качество: BDRip 720p
Формат: MKV
Видео кодек: H264
Аудио кодек: AC3
Видео: AVC, 1280x694 (16:9), 23.976 fps, 6 560 Kbps (0.308 bit/pixel)
Аудио#1: AC3, 48.0 KHz, 2 ch, 192 Kbps, CBR MVO
Аудио#2: AC3, 48.0 KHz, 2 ch, 192 Kbps, CBR DVO
Аудио#3: AC3, 48.0 KHz, 2 ch, 192 Kbps, CBR Eng

MediaInfo

Общее
Уникальный идентификатор : 228256190263973196938991152277547550265 (0xABB88B0DFBA5C7E0B139AB5B49728639)
Полное имя : G:\Video\Tajny ispovedi.1981.BDRip.720p.mkv
Формат : Matroska
Версия формата : Version 4 / Version 2
Размер файла : 5,50 Гбайт
Продолжительность : 1 ч. 48 м.
Общий поток : 7281 Кбит/сек
Дата кодирования : UTC 2014-10-14 02:31:10
Программа кодирования : mkvmerge v6.9.1 ('Blue Panther') 64bit built on Apr 18 2014 18:23:38
Библиотека кодирования : libebml v1.3.0 + libmatroska v1.4.1
Видео
Идентификатор : 1
Формат : AVC
Формат/Информация : Advanced Video Codec
Профиль формата : [email protected]
Параметр CABAC формата : Да
Параметр ReFrames формата : 9 кадров
Идентификатор кодека : V_MPEG4/ISO/AVC
Продолжительность : 1 ч. 48 м.
Битрейт : 6560 Кбит/сек
Ширина : 1280 пикселей
Высота : 694 пикселя
Соотношение сторон : 1,85:1
Режим частоты кадров : Постоянный
Частота кадров : 23,976 кадра/сек
Цветовое пространство : YUV
Субдискретизация насыщенности : 4:2:0
Битовая глубина : 8 бит
Тип развёртки : Прогрессивная
Бит/(Пиксели*Кадры) : 0.308
Размер потока : 4,95 Гбайт (90%)
Заголовок : BDRip -- STarankov
Библиотека кодирования : x264 core 142 r2431 ac76440
Настройки программы : cabac=1 / ref=9 / deblock=1:-1:-1 / analyse=0x3:0x113 / me=umh / subme=10 / psy=1 / psy_rd=1.00:0.15 / mixed_ref=1 / me_range=32 / chroma_me=1 / trellis=2 / 8x8dct=1 / cqm=0 / deadzone=21,11 / fast_pskip=1 / chroma_qp_offset=-3 / threads=6 / lookahead_threads=1 / sliced_threads=0 / nr=0 / decimate=1 / interlaced=0 / bluray_compat=0 / constrained_intra=0 / bframes=8 / b_pyramid=2 / b_adapt=2 / b_bias=0 / direct=3 / weightb=1 / open_gop=0 / weightp=2 / keyint=230 / keyint_min=23 / scenecut=40 / intra_refresh=0 / rc_lookahead=40 / rc=crf / mbtree=0 / crf=17.6 / qcomp=0.60 / qpmin=0 / qpmax=69 / qpstep=4 / vbv_maxrate=40000 / vbv_bufsize=50000 / crf_max=0.0 / nal_hrd=none / filler=0 / ip_ratio=1.40 / pb_ratio=1.30 / aq=1:1.00
Язык : English
Default : Да
Forced : Нет
Аудио #1
Идентификатор : 2
Формат : AC-3
Формат/Информация : Audio Coding 3
Расширение режима : CM (complete main)
Параметр Endianness формата : Big
Идентификатор кодека : A_AC3
Продолжительность : 1 ч. 48 м.
Вид битрейта : Постоянный
Битрейт : 192 Кбит/сек
Каналы : 2 канала
Расположение каналов : Front: L R
Частота : 48,0 КГц
Битовая глубина : 16 бит
Метод сжатия : С потерями
Размер потока : 148 Мбайт (3%)
Заголовок : MVO
Язык : Russian
Default : Да
Forced : Нет
Аудио #2
Идентификатор : 3
Формат : AC-3
Формат/Информация : Audio Coding 3
Расширение режима : CM (complete main)
Параметр Endianness формата : Big
Идентификатор кодека : A_AC3
Продолжительность : 1 ч. 48 м.
Вид битрейта : Постоянный
Битрейт : 192 Кбит/сек
Каналы : 2 канала
Расположение каналов : Front: L R
Частота : 48,0 КГц
Битовая глубина : 16 бит
Метод сжатия : С потерями
Размер потока : 148 Мбайт (3%)
Заголовок : DVO (HTB+)
Язык : Russian
Default : Нет
Forced : Нет
Аудио #3
Идентификатор : 4
Формат : AC-3
Формат/Информация : Audio Coding 3
Расширение режима : CM (complete main)
Параметр Endianness формата : Big
Идентификатор кодека : A_AC3
Продолжительность : 1 ч. 48 м.
Вид битрейта : Постоянный
Битрейт : 192 Кбит/сек
Каналы : 2 канала
Расположение каналов : Front: L R
Частота : 48,0 КГц
Битовая глубина : 16 бит
Метод сжатия : С потерями
Размер потока : 148 Мбайт (3%)
Заголовок : Original
Язык : English
Default : Нет
Forced : Нет
Текст #1
Идентификатор : 5
Формат : UTF-8
Идентификатор кодека : S_TEXT/UTF8
Идентификатор кодека/Информация : UTF-8 Plain Text
Заголовок : русский
Язык : Russian
Default : Нет
Forced : Нет
Текст #2
Идентификатор : 6
Формат : UTF-8
Идентификатор кодека : S_TEXT/UTF8
Идентификатор кодека/Информация : UTF-8 Plain Text
Заголовок : английский
Default : Нет
Forced : Нет
Меню
00:00:00.000 : :Chapter 01
00:11:24.682 : :Chapter 02
00:22:40.942 : :Chapter 03
00:33:40.018 : :Chapter 04
00:46:49.014 : :Chapter 05
00:59:34.320 : :Chapter 06
01:18:47.470 : :Chapter 07
01:34:38.005 : :Chapter 08

Награды

Венецианский кинофестиваль, 1981 год
Победитель (1):
Кубок Пазинетти за лучшую мужскую роль (Роберт Дювалл)
[Профиль]  [ЛС] 
Похожие темы
Форум Тема Автор Размер
Зарубежное кино 13 часов: Тайные солдаты Бенгази / 13 Hours: The Secret Soldiers of Benghazi (2016) BDRip 720p | D | Line Тоха™ 7,86 GB
FPS (1st Person) S.T.A.L.K.E.R: Shadow of Chernobyl - Тайные Тропы 2 (2011) PC | RePack от SeregA_Lus (2011) (antreg & dimos при непосредственном участии Erlik (Garry_Galler) & Stalk15, а также gruber) ... Clieft 3,39 GB
Книги Тайны Севастополя. Кн.1. Тайны земные / Кн.2. Тайны подземные. NIGGA 61 MB
Отечественные сериалы Тайны следствия [S14 Серии: 1-16 из 16] (Ольга Кандидатова) (2014, детектив, драма, криминал, HDTVRip) anatolyi100 8,6 GB
Зарубежные сериалы Тайны Смолвиля / Smallville [S01-10] (2001-2011) DVDRip, HDTVRip -=DoC(ToP)=-™ 75,1 GB
Показать сообщения:    
Ответить на тему

Текущее время: 03-Дек 14:35

Часовой пояс: UTC + 3



Вы не можете начинать темы
Вы не можете отвечать на сообщения
Вы не можете редактировать свои сообщения
Вы не можете удалять свои сообщения
Вы не можете голосовать в опросах
Вы не можете прикреплять файлы к сообщениям
Вы не можете скачивать файлы