Тумстоун: Легенда дикого запада / Tombstone (Джордж П. Косматос, Кевин Жарр) [1993 г., Вестерн, боевик, драма, BDRip 720p] DVO,AVO

Ответить на тему
Статистика раздачи [Обновить пиров]
Нет
 
   
 
 
Автор
Сообщение

mihis ®

Стаж: 2 года 1 месяц

Сообщений: 221

Создавать темы 03-Ноя-2015 15:57

[Цитировать] 

Тумстоун: Легенда дикого запада / Tombstone«I'm your huckleberry!» Год выпуска: 1993
Страна: США, Cinergi Pictures Entertainment Inc., Hollywood Pictures
Жанр: Вестерн, боевик, драма
Продолжительность: 02:09:38
Перевод:
Профессиональный (двухголосый, закадровый) П. Гланц, И. Королева
Авторский (одноголосый, закадровый) А.Гаврилов, Ю.Живов, П. Карцев
Оригинал
Субтитры: Русские, английские
Режиссер: Джордж П. Косматос, Кевин Жарр
В ролях: Курт Расселл, Вэл Килмер, Сэм Эллиотт, Билл Пэкстон, Пауэрс Бут, Майкл Бин, Чарлтон Хестон, Джейсон Пристли, Джон Тенни, Стивен Лэнг, Томас Хейден Чёрч, Дэна Дилэйни, Паула Малкомсон, Лиза Коллинз, Дэна Уилер-Николсон, Джоанна Пакула, Майкл Рукер, Гарри Кэри мл., Билли Боб Торнтон, Томас Арана, Пэт Брэйди, Пол Бен-Виктор, Джон Филбин, Роберт Джон Бёрк, Билли Зейн, Джон Корбетт, Бак Тейлор, Терри О`Куин, Чарльз Шнайдер, Гари Кларк, Билли Джо Паттон, Фрэнк Сталлоне, Бобби Джо МакФедден, Педро Армендарис мл.
Описание: 1871 год. В США закончилась гражданская война. Фермеры, грабители, золотоискатели, убийцы, воры - все отправились на поиски состояний. Нам расскажут легенду о шерифе Эрпе, который отказался от своей работы, чтобы начать нормальную жизнь со своей семьей. Его друг Док Холлидей, южанин и игрок, тоже решил зажить нормальной жизнью.В городе Тумстоун нашли месторождение серебра, началась серебряная лихорадка. Там и решили они осесть. Но в то же время там же организовалась жестокая и огромная банда убийц.

Качество: BDRip 720p
Формат: MKV
Видео кодек: H264
Аудио кодек: AC3
Видео: AVC, 1280x534 (2.35:1), 23.976 fps, 7 000 Kbps (0.427 bit/pixel)
Аудио #1: 48 kHz, AC3 6 канала(ов), ~640.00 kbps avg DVO П. Гланц, И. Королева
Аудио #2: 48 kHz, AC3 6 канала(ов), ~640.00 kbps avg AVO А. Гаврилов
Аудио #3: 48 kHz, AC3 6 канала(ов), ~640.00 kbps avg AVO Ю.Живов
Аудио #4: 48 kHz, AC3 2 канала(ов), ~192.00 kbps avg AVO П. Карцев
Аудио #5: 48 kHz, AC3 6 канала(ов), ~640.00 kbps avg Eng

MediaInfo

Общее
Уникальный идентификатор : 171583262914271000321907508702507306409 (0x8115BC01A739E1EC99370FD576EA0DA9)
Полное имя : Тумстоун. Легенда дикого запада.1993.P.720p.BluRay.x264-HDWinG.mkv
Формат : Matroska
Версия формата : Version 4 / Version 2
Размер файла : 8,83 Гбайт
Продолжительность : 2 ч. 9 м.
Общий поток : 9754 Кбит/сек
Название фильма : Tombstone [720p] [1993] DVO
Дата кодирования : UTC 2014-05-09 22:10:41
Программа кодирования : mkvmerge v6.9.1 ('Blue Panther') 32bit built on Apr 18 2014 18:15:44
Библиотека кодирования : libebml v1.3.0 + libmatroska v1.4.1
Видео
Идентификатор : 1
Формат : AVC
Формат/Информация : Advanced Video Codec
Профиль формата : [email protected]
Параметр CABAC формата : Да
Параметр ReFrames формата : 12 кадров
Идентификатор кодека : V_MPEG4/ISO/AVC
Продолжительность : 2 ч. 9 м.
Битрейт : 7000 Кбит/сек
Ширина : 1280 пикселей
Высота : 534 пикселя
Соотношение сторон : 2,40:1
Режим частоты кадров : Постоянный
Частота кадров : 23,976 кадра/сек
Цветовое пространство : YUV
Субдискретизация насыщенности : 4:2:0
Битовая глубина : 8 бит
Тип развёртки : Прогрессивная
Бит/(Пиксели*Кадры) : 0.427
Размер потока : 6,16 Гбайт (70%)
Заголовок : profile.php?mode=viewprofile&u=22488948
Библиотека кодирования : x264 core 133 r2334 a3ac64b
Настройки программы : cabac=1 / ref=12 / deblock=1:-3:-3 / analyse=0x3:0x133 / me=umh / subme=10 / psy=1 / psy_rd=1.00:0.00 / mixed_ref=1 / me_range=48 / chroma_me=1 / trellis=2 / 8x8dct=1 / cqm=0 / deadzone=21,11 / fast_pskip=0 / chroma_qp_offset=-2 / threads=12 / lookahead_threads=1 / sliced_threads=0 / nr=0 / decimate=0 / interlaced=0 / bluray_compat=0 / constrained_intra=0 / bframes=8 / b_pyramid=2 / b_adapt=2 / b_bias=0 / direct=3 / weightb=1 / open_gop=0 / weightp=2 / keyint=360 / keyint_min=2 / scenecut=40 / intra_refresh=0 / rc_lookahead=240 / rc=2pass / mbtree=1 / bitrate=7000 / ratetol=1.0 / qcomp=0.70 / qpmin=0 / qpmax=69 / qpstep=4 / cplxblur=20.0 / qblur=0.5 / vbv_maxrate=50000 / vbv_bufsize=30000 / nal_hrd=none / ip_ratio=1.10 / aq=1:0.80
Язык : English
Default : Да
Forced : Нет
Аудио #1
Идентификатор : 2
Формат : AC-3
Формат/Информация : Audio Coding 3
Расширение режима : CM (complete main)
Параметр Endianness формата : Big
Идентификатор кодека : A_AC3
Продолжительность : 2 ч. 9 м.
Вид битрейта : Постоянный
Битрейт : 640 Кбит/сек
Каналы : 6 каналов
Расположение каналов : Front: L C R, Side: L R, LFE
Частота : 48,0 КГц
Битовая глубина : 16 бит
Метод сжатия : С потерями
Размер потока : 593 Мбайт (7%)
Заголовок : P, DVO [П. Гланц, И. Королева]
Язык : Russian
Default : Да
Forced : Нет
Аудио #2
Идентификатор : 3
Формат : AC-3
Формат/Информация : Audio Coding 3
Расширение режима : CM (complete main)
Параметр Endianness формата : Big
Идентификатор кодека : A_AC3
Продолжительность : 2 ч. 9 м.
Вид битрейта : Постоянный
Битрейт : 640 Кбит/сек
Каналы : 6 каналов
Расположение каналов : Front: L C R, Side: L R, LFE
Частота : 48,0 КГц
Битовая глубина : 16 бит
Метод сжатия : С потерями
Размер потока : 593 Мбайт (7%)
Заголовок : AVO [А. Гаврилов]
Язык : Russian
Default : Нет
Forced : Нет
Аудио #3
Идентификатор : 4
Формат : AC-3
Формат/Информация : Audio Coding 3
Расширение режима : CM (complete main)
Параметр Endianness формата : Big
Идентификатор кодека : A_AC3
Продолжительность : 2 ч. 9 м.
Вид битрейта : Постоянный
Битрейт : 640 Кбит/сек
Каналы : 6 каналов
Расположение каналов : Front: L C R, Side: L R, LFE
Частота : 48,0 КГц
Битовая глубина : 16 бит
Метод сжатия : С потерями
Размер потока : 593 Мбайт (7%)
Заголовок : AVO [Ю. Живов]
Язык : Russian
Default : Нет
Forced : Нет
Аудио #4
Идентификатор : 5
Формат : AC-3
Формат/Информация : Audio Coding 3
Расширение режима : CM (complete main)
Параметр Endianness формата : Big
Идентификатор кодека : A_AC3
Продолжительность : 2 ч. 9 м.
Вид битрейта : Постоянный
Битрейт : 192 Кбит/сек
Каналы : 2 канала
Расположение каналов : Front: L R
Частота : 48,0 КГц
Битовая глубина : 16 бит
Метод сжатия : С потерями
Размер потока : 178 Мбайт (2%)
Заголовок : AVO [П. Карцев]
Язык : Russian
Default : Нет
Forced : Нет
Аудио #5
Идентификатор : 6
Формат : AC-3
Формат/Информация : Audio Coding 3
Расширение режима : CM (complete main)
Параметр Endianness формата : Big
Идентификатор кодека : A_AC3
Продолжительность : 2 ч. 9 м.
Вид битрейта : Постоянный
Битрейт : 640 Кбит/сек
Каналы : 6 каналов
Расположение каналов : Front: L C R, Side: L R, LFE
Частота : 48,0 КГц
Битовая глубина : 16 бит
Метод сжатия : С потерями
Размер потока : 593 Мбайт (7%)
Язык : English
Default : Нет
Forced : Нет
Текст #1
Идентификатор : 7
Формат : UTF-8
Идентификатор кодека : S_TEXT/UTF8
Идентификатор кодека/Информация : UTF-8 Plain Text
Язык : English
Default : Нет
Forced : Нет
Текст #2
Идентификатор : 8
Формат : UTF-8
Идентификатор кодека : S_TEXT/UTF8
Идентификатор кодека/Информация : UTF-8 Plain Text
Язык : Russian
Default : Нет
Forced : Нет
Меню
00:00:00.000 : :Program Start
00:00:36.662 : :"The Cowboys"
00:08:51.781 : :Brothers' Reunion
00:10:57.615 : :Doc Holliday
00:18:31.819 : :25 Percent of the House
00:25:20.894 : :An Enchanted Moment
00:26:35.844 : :The Bird Cage Theatre
00:36:08.625 : :At the Faro Table
00:40:43.274 : :Wyatt and Josephine
00:45:45.117 : :Wyatt and Mattie
00:48:49.260 : :Law Dog
00:56:20.377 : :Virgil Earp's Decision
01:04:30.241 : :A Fight A-Comin'
01:05:57.453 : :Doc's Good Woman
01:12:01.400 : :Gunfight at the O.K. Corral
01:20:37.207 : :Ambushed!
01:31:50.463 : :It's Over!
01:34:06.015 : :Hell's Comin'
01:39:00.643 : :A Senseless Murder
01:42:37.276 : :Forgiven
01:49:07.416 : :Showdown
01:52:14.227 : :The Last Charge of Wyatt Earp and His Immortals
01:54:13.638 : :At the Glenwood Sanatorium
01:59:06.890 : :A Dance and Then We'll Call Room Service
02:01:09.721 : :Closing Credits
[Профиль]  [ЛС] 
Показать сообщения:    
Ответить на тему

Текущее время: 04-Дек 13:08

Часовой пояс: UTC + 3



Вы не можете начинать темы
Вы не можете отвечать на сообщения
Вы не можете редактировать свои сообщения
Вы не можете удалять свои сообщения
Вы не можете голосовать в опросах
Вы не можете прикреплять файлы к сообщениям
Вы не можете скачивать файлы