Уайатт Эрп / Wyatt Earp (Лоуренс Кэздан) [1994 г., Вестерн, боевик, драма, BDRip 720p] Dub, MVO, AVO

Ответить на тему
Статистика раздачи [Обновить пиров]
Скачал: [ 1 ]
 
   
 
 
Автор
Сообщение

mihis ®

Стаж: 2 года 1 месяц

Сообщений: 221

Создавать темы 03-Ноя-2015 16:00

[Цитировать] 

Уайатт Эрп / Wyatt Earp«The epic story of love and adventure in a lawless land» Год выпуска: 1994
Страна: США, Warner Bros. Pictures, Tig Productions, Kasdan Pictures
Жанр: Вестерн, боевик, драма
Продолжительность: 03:10:35
Перевод:
Профессиональный (полное дублирование)
Профессиональный (многоголосый, закадровый)
Авторский (одноголосый, закадровый) Ю.Живов, А.Гаврилов, Л.Володарский
Оригинал
Субтитры: Английские
Режиссер: Лоуренс Кэздан
В ролях: Кевин Костнер, Дэннис Куэйд, Джин Хэкмен, Джефф Фэйи, Марк Хэрмон, Майкл Мэдсен, Кэтрин О`Хара, Билл Пуллман, Изабелла Росселлини, Том Сайзмор, Элисон Эллиотт, Мэр Уиннингхэм, Дэвид Эндрюс, Линден Эшби, Джоанна Гоуинг, Рекс Линн, Адам Болдуин, Иэн Боэн, МакКензи Эстин, Джеймс Кэвизел, Карен Грассл
Описание: Кевин Костнер в роли самого известного представителя закона из всех, что когда-либо шагали по дорогам Дикого Запада. Он играет человека, ставшего легендой в героической саге, изобилующей острыми и непредсказуемыми моментами.

Качество: BDRip 720p
Формат: MKV
Видео кодек: H264
Аудио кодек: AC3
Видео: AVC, 1280x528 (2.40:1), 23.976 fps, 5 336 Kbps (0.329 bit/pixel)
Аудио #1: 48 kHz, AC3 2 канала(ов), ~192.00 kbps avg Dub
Аудио #2: 48 kHz, AC3 2 канала(ов), ~192.00 kbps avg MVO
Аудио #3: 48 kHz, AC3 6 канала(ов), ~640.00 kbps avg AVO Ю.Живов
Аудио #4: 48 kHz, AC3 2 канала(ов), ~192.00 kbps avg AVO А.Гаврилов
Аудио #5: 48 kHz, AC3 2 канала(ов), ~192.00 kbps avg AVO Л.Володарский
Аудио #6: 48 kHz, AC3 6 канала(ов), ~640.00 kbps avg Eng

MediaInfo

Общее
Уникальный идентификатор : 197538635544357849235391382668382849179 (0x949C8EADA05736108A98A3C7D6A0489B)
Полное имя : E:\Video\Uayatt.Erp.1994.x264.BDRip.(720p)-HDClub.mkv
Формат : Matroska
Версия формата : Version 2
Размер файла : 9,83 Гбайт
Продолжительность : 3 ч. 10 м.
Общий поток : 7387 Кбит/сек
Название фильма : Wyatt Earp (1994) - Release for HDCLUB
Дата кодирования : UTC 2011-04-11 20:51:27
Программа кодирования : mkvmerge v3.4.0 ('Rapunzel') built on May 15 2010 09:38:20
Библиотека кодирования : libebml v0.8.0 + libmatroska v0.9.0
Видео
Идентификатор : 1
Формат : AVC
Формат/Информация : Advanced Video Codec
Профиль формата : [email protected]
Параметр CABAC формата : Да
Параметр ReFrames формата : 12 кадров
Идентификатор кодека : V_MPEG4/ISO/AVC
Продолжительность : 3 ч. 10 м.
Битрейт : 5336 Кбит/сек
Ширина : 1280 пикселей
Высота : 528 пикселей
Соотношение сторон : 2,40:1
Режим частоты кадров : Постоянный
Частота кадров : 23,976 кадра/сек
Цветовое пространство : YUV
Субдискретизация насыщенности : 4:2:0
Битовая глубина : 8 бит
Тип развёртки : Прогрессивная
Бит/(Пиксели*Кадры) : 0.329
Размер потока : 6,91 Гбайт (70%)
Заголовок : Release for HDCLUB
Библиотека кодирования : x264 core 68 r1183M f21daff
Настройки программы : cabac=1 / ref=12 / deblock=1:-3:-3 / analyse=0x3:0x113 / me=umh / subme=9 / psy_rd=0.8:0.8 / mixed_ref=1 / me_range=32 / chroma_me=1 / trellis=2 / 8x8dct=1 / cqm=0 / deadzone=21,11 / chroma_qp_offset=-4 / threads=6 / nr=0 / decimate=1 / mbaff=0 / bframes=4 / b_pyramid=0 / b_adapt=2 / b_bias=0 / direct=3 / wpredb=1 / keyint=250 / keyint_min=25 / scenecut=40 / rc=2pass / bitrate=5336 / ratetol=1.0 / qcomp=0.60 / qpmin=10 / qpmax=51 / qpstep=4 / cplxblur=20.0 / qblur=0.5 / vbv_maxrate=50000 / vbv_bufsize=50000 / ip_ratio=1.40 / pb_ratio=1.30 / aq=1:0.70
Язык : English
Default : Да
Forced : Нет
Аудио #1
Идентификатор : 2
Формат : AC-3
Формат/Информация : Audio Coding 3
Расширение режима : CM (complete main)
Параметр Endianness формата : Big
Идентификатор кодека : A_AC3
Продолжительность : 3 ч. 10 м.
Вид битрейта : Постоянный
Битрейт : 192 Кбит/сек
Каналы : 2 канала
Расположение каналов : Front: L R
Частота : 48,0 КГц
Битовая глубина : 16 бит
Метод сжатия : С потерями
Размер потока : 262 Мбайт (3%)
Заголовок : AC3 2.0 @ 192 kbps - Дублированный
Язык : Russian
Default : Да
Forced : Нет
Аудио #2
Идентификатор : 3
Формат : AC-3
Формат/Информация : Audio Coding 3
Расширение режима : CM (complete main)
Параметр Endianness формата : Big
Идентификатор кодека : A_AC3
Продолжительность : 3 ч. 10 м.
Вид битрейта : Постоянный
Битрейт : 192 Кбит/сек
Каналы : 2 канала
Расположение каналов : Front: L R
Частота : 48,0 КГц
Битовая глубина : 16 бит
Метод сжатия : С потерями
Размер потока : 262 Мбайт (3%)
Заголовок : AC3 2.0 @ 192 kbps - Многоголосый закадровый
Язык : Russian
Default : Нет
Forced : Нет
Аудио #3
Идентификатор : 4
Формат : AC-3
Формат/Информация : Audio Coding 3
Расширение режима : CM (complete main)
Параметр Endianness формата : Big
Идентификатор кодека : A_AC3
Продолжительность : 3 ч. 10 м.
Вид битрейта : Постоянный
Битрейт : 640 Кбит/сек
Каналы : 6 каналов
Расположение каналов : Front: L C R, Side: L R, LFE
Частота : 48,0 КГц
Битовая глубина : 16 бит
Метод сжатия : С потерями
Размер потока : 872 Мбайт (9%)
Заголовок : AC3 5.1 @ 640 kbps - Одноголосый закадровый, Ю.Живов
Язык : Russian
Default : Нет
Forced : Нет
Аудио #4
Идентификатор : 5
Формат : AC-3
Формат/Информация : Audio Coding 3
Расширение режима : CM (complete main)
Параметр Endianness формата : Big
Идентификатор кодека : A_AC3
Продолжительность : 3 ч. 10 м.
Вид битрейта : Постоянный
Битрейт : 192 Кбит/сек
Каналы : 2 канала
Расположение каналов : Front: L R
Частота : 48,0 КГц
Битовая глубина : 16 бит
Метод сжатия : С потерями
Размер потока : 262 Мбайт (3%)
Заголовок : AC3 2.0 @ 192 kbps - Одноголосый закадровый, А.Гаврилов
Язык : Russian
Default : Нет
Forced : Нет
Аудио #5
Идентификатор : 6
Формат : AC-3
Формат/Информация : Audio Coding 3
Расширение режима : CM (complete main)
Параметр Endianness формата : Big
Идентификатор кодека : A_AC3
Продолжительность : 3 ч. 10 м.
Вид битрейта : Постоянный
Битрейт : 192 Кбит/сек
Каналы : 2 канала
Расположение каналов : Front: L R
Частота : 48,0 КГц
Битовая глубина : 16 бит
Метод сжатия : С потерями
Размер потока : 262 Мбайт (3%)
Заголовок : AC3 2.0 @ 192 kbps - Одноголосый закадровый, Л.Володарский
Язык : Russian
Default : Нет
Forced : Нет
Аудио #6
Идентификатор : 7
Формат : AC-3
Формат/Информация : Audio Coding 3
Расширение режима : CM (complete main)
Параметр Endianness формата : Big
Идентификатор кодека : A_AC3
Продолжительность : 3 ч. 10 м.
Вид битрейта : Постоянный
Битрейт : 640 Кбит/сек
Каналы : 6 каналов
Расположение каналов : Front: L C R, Side: L R, LFE
Частота : 48,0 КГц
Битовая глубина : 16 бит
Метод сжатия : С потерями
Размер потока : 872 Мбайт (9%)
Заголовок : AC3 5.1 @ 640 kbps
Язык : English
Default : Нет
Forced : Нет
Текст
Идентификатор : 8
Формат : UTF-8
Идентификатор кодека : S_TEXT/UTF8
Идентификатор кодека/Информация : UTF-8 Plain Text
Язык : English
Default : Нет
Forced : Нет
[Профиль]  [ЛС] 
Похожие темы
Форум Тема Автор Размер
Зарубежные сериалы Поворот / Turn (1 сезон: 1-10 серии из 10) (Ник Копус, Руперт Уайатт) [2014 г., Драма, экранизация, WEB-DLRip] MVO Baibaкo mihis 6,11 GB
Показать сообщения:    
Ответить на тему

Текущее время: 06-Дек 17:08

Часовой пояс: UTC + 3



Вы не можете начинать темы
Вы не можете отвечать на сообщения
Вы не можете редактировать свои сообщения
Вы не можете удалять свои сообщения
Вы не можете голосовать в опросах
Вы не можете прикреплять файлы к сообщениям
Вы не можете скачивать файлы